Read More ...
Ghost In the Shell 2.0 (2008)

Скачать через торрент [VIDEO] Хребет дьявола The Devils Backbone бесплатно русская версия torrent активатор

Статистика раздачи
Размер:  690 MB   |    Зарегистрирован:  5 лет 11 месяцев   |    .torrent скачан:  60 раз   |   
Раздают:  1  
   
загрузка...
 
Автор Сообщение

Galfimbul

avatar Galfimbul




Хребет дьявола
The Devil's Backbone / El espinazo del diablo
Год выпуска: 2001
Страна: Испания , Мексика
Жанр: Триллер, Фэнтези, Детектив
Продолжительность: 01:47:26
Перевод: Профессиональный (полное дублирование)
Русские субтитры: нет
Производство: Anhelo Producciones, Canal+ España, El Deseo S.A., Good Machine, Sogepaq, Tequila Gang
Слоган: «What is a ghost?»
Режиссер: Гильермо Дель Торо / Guillermo del Toro
Сценарий: Гильермо дель Торо, Антонио Трасхоррас, Дэвид Муньос
Продюсер: Агустин Альмодовар, Берта Наварро, Педро Альмодовар и другие...
Оператор: Гильермо Наварро
Композитор: Хавьер Наваррете
В ролях: Мариса Паредес, Эдуардо Норьега, Федерико Луппи, Фернандо Тилве, Иниго Гарсес и другие...
Описание: Пугающий рассказ о 12-летнем Карлосе, который после смерти отца попадает в школу Санта Лусии на попечение директрисы Кармен и профессора Касареса. Отец мальчика был мятежником, убитым в сражении против режима Франко. И хотя приют перегружен большим количеством детей, директор школы сочувствующе принимает молодого Карлоса.
Постепенно, Карлос исследует тайны школы, оказывая помощь юному призраку, который бродит по земле, и известен по имени «тот, кто вздыхает». Эта сверхъестественная, странная и непредсказуемая история призрака — также сказавшая политическая аллегория для зверской войны, которая идет вне стен школы...
Качество: BDRip
Формат: MP4
Видео кодек: XviD
Аудио кодек: AAC
Видео: MPEG4, 640x360 (16:9), 23.976 fps, 768 Kbps (0.139 bit/pixel)
Аудио: AAC LC, 48.0 KHz, 2 ch, 124 Kbps, VBR
Скриншоты:



Сценарий фильма Гильермо Дель Торо написал еще во время учебы в колледже
За основу сюжета была взята популярная серия комиксов испанского художника Карлоса Хименеса «Паракуэльос»
Дизайн призрака Санти был вдохновлен белолицыми призраками из японских хорроров типа «Звонка» (1998)
Финальный кадр фильма - отсылка к знаменитому финальному кадру классического вестерна «Искатели» (1956)
Согласно определению Гильермо дель Торо, «Хребет Дьявола» (2001) - родной брат фильма «Лабиринт Фавна» (2006), а «Лабиринт Фавна» - родная сестра фильма «Хребет Дьявола»

<!--/code_head--> <div class="c-body">General
Complete name                            : G:\1\Rips\mp4\The.Devil's.Backbone.2001.BDRip.640x.rus.-TROY.mp4
Format                                   : MPEG-4
Format profile                           : Base Media / Version 2
Codec ID                                 : mp42
File size                                : 690 MiB
Duration                                 : 1h 48mn
Overall bit rate mode                    : Variable
Overall bit rate                         : 890 Kbps
Encoded date                             : UTC 2012-04-30 18:29:20
Tagged date                              : UTC 2012-04-30 18:29:20

Video
ID                                       : 201
Format                                   : MPEG-4 Visual
Format profile                           : Advanced [email protected]
Format settings, BVOP                    : No
Format settings, QPel                    : No
Format settings, GMC                     : No warppoints
Format settings, Matrix                  : Default (H.263)
Codec ID                                 : 20
Duration                                 : 1h 47mn
Bit rate mode                            : Variable
Bit rate                                 : 768 Kbps
Maximum bit rate                         : 3 349 Kbps
Width                                    : 640 pixels
Height                                   : 360 pixels
Display aspect ratio                     : 16:9
Frame rate mode                          : Constant
Frame rate                               : 23.976 fps
Color space                              : YUV
Chroma subsampling                       : 4:2:0
Bit depth                                : 8 bits
Scan type                                : Progressive
Compression mode                         : Lossy
Bits/(Pixel*Frame)                       : 0.139
Stream size                              : 592 MiB (86%)
Writing library                          : XviD 64
Encoded date                             : UTC 2012-04-30 18:29:20
Tagged date                              : UTC 2012-04-30 18:30:06

Audio
ID                                       : 101
Format                                   : AAC
Format/Info                              : Advanced Audio Codec
Format profile                           : LC
Codec ID                                 : 40
Duration                                 : 1h 48mn
Bit rate mode                            : Variable
Bit rate                                 : 124 Kbps
Maximum bit rate                         : 139 Kbps
Channel(s)                               : 2 channels
Channel positions                        : Front: L R
Sampling rate                            : 48.0 KHz
Compression mode                         : Lossy
Stream size                              : 96.4 MiB (14%)
Encoded date                             : UTC 2012-04-30 18:30:02
Tagged date                              : UTC 2012-04-30 18:30:06 <!--/code--><!--/code_wrap-->
<!--/code_head--> <div class="c-body">General
Unique ID                                : 189109403760743014517613658812264006288 (0x8E452576FBED3DFF9BC8D5673EFCC290)
Complete name                            : G:\1\Sources\The.Devil's.Backbone.720p.BluRay.Rus.mkv
Format                                   : Matroska
Format version                           : Version 2
File size                                : 4.37 GiB
Duration                                 : 1h 48mn
Overall bit rate                         : 5 768 Kbps
Movie name                               : The Devil's Backbone (2001)
Encoded date                             : UTC 2012-04-30 10:16:24
Writing application                      : mkvmerge v5.5.0 ('Healer') built on Apr  6 2012 21:43:24
Writing library                          : libebml v1.2.3 + libmatroska v1.3.0

Video
ID                                       : 1
Format                                   : AVC
Format/Info                              : Advanced Video Codec
Format profile                           : <a href="mailto:[email protected]" class="postLink">[email protected]</a>
Format settings, CABAC                   : Yes
Format settings, ReFrames                : 7 frames
Codec ID                                 : V_MPEG4/ISO/AVC
Duration                                 : 1h 48mn
Bit rate                                 : 5 354 Kbps
Width                                    : 1 280 pixels
Height                                   : 720 pixels
Display aspect ratio                     : 16:9
Frame rate                               : 23.976 fps
Color space                              : YUV
Chroma subsampling                       : 4:2:0
Bit depth                                : 8 bits
Scan type                                : Progressive
Bits/(Pixel*Frame)                       : 0.242
Stream size                              : 3.94 GiB (90%)
Writing library                          : x264 core 107 r1745+311 2317302
Encoding settings                        : cabac=1 / ref=7 / deblock=1:-3:-3 / analyse=0x3:0x133 / me=umh / subme=10 / psy=1 / fade_compensate=0.00 / psy_rd=1.00:0.00 / mixed_ref=1 / me_range=32 / chroma_me=1 / trellis=2 / 8x8dct=1 / cqm=0 / deadzone=21,11 / fast_pskip=0 / chroma_qp_offset=-2 / threads=12 / sliced_threads=0 / nr=0 / decimate=0 / interlaced=0 / constrained_intra=0 / fgo=0 / bframes=8 / b_pyramid=2 / b_adapt=2 / b_bias=0 / direct=3 / weightb=1 / open_gop=0 / weightp=2 / keyint=250 / keyint_min=23 / scenecut=40 / intra_refresh=0 / rc_lookahead=60 / rc=2pass / mbtree=0 / bitrate=5354 / ratetol=1.0 / qcomp=0.60 / qpmin=10 / qpmax=51 / qpstep=4 / cplxblur=20.0 / qblur=0.5 / vbv_maxrate=50000 / vbv_bufsize=62500 / ip_ratio=1.40 / pb_ratio=1.30 / aq=1:0.80 / nal_hrd=none
Language                                 : English
Default                                  : Yes
Forced                                   : No

Audio
ID                                       : 2
Format                                   : AC-3
Format/Info                              : Audio Coding 3
Mode extension                           : CM (complete main)
Format settings, Endianness              : Big
Codec ID                                 : A_AC3
Duration                                 : 1h 48mn
Bit rate mode                            : Constant
Bit rate                                 : 448 Kbps
Channel(s)                               : 6 channels
Channel positions                        : Front: L C R, Side: L R, LFE
Sampling rate                            : 48.0 KHz
Bit depth                                : 16 bits
Compression mode                         : Lossy
Stream size                              : 347 MiB (8%)
Title                                    : AC3 5.1 @ 448 kbps - Дублированный
Language                                 : Russian
Default                                  : Yes
Forced                                   : No <!--/code--><!--/code_wrap-->



Трекер:  [ 07-Май-2012 18:01 ]

  

Скачать .torrent

Размер .torrent файла 14 KB


Размер: 690 MB
Хэш (hash) релиза: 997a92d5f16702aa7873d6836f8d6dcc2d73d237

Еще никто не оставлял запись к записи скачать торрент [VIDEO] Хребет дьявола The Devils Backbone . Будь первым!

!Обратная связь