The Battle of New Orleans | Iss Pyaar Ko Kya Naam Doon 3 | Anna Faris

Скачать через торрент [VIDEO] Мутанты Mimic бесплатно русская версия torrent активатор

Статистика раздачи
Размер:  715 MB   |    Зарегистрирован:  6 лет 2 месяца   |    .torrent скачан:  47 раз   |   
Раздают:  1  
   
загрузка...
 
Автор Сообщение

Galfimbul

avatar Galfimbul




Мутанты - Режиссерская версия
Mimic - Director's Cut
Год выпуска: 1997
Страна: США
Жанр: Ужасы, Фантастика, Драма
Продолжительность: 01:51:44
Перевод: Профессиональный (двухголосый) + русские субтитры (на непереведенные места)
Русские субтитры: есть (на непереведенные места)
Производство: Dimension Films, Miramax Films
Слоган: «Evolution has a way of keeping things alive»
Режиссер: Гильермо Дель Торо / Guillermo del Toro
Сценарий: Мэттью Роббинс, Гильермо дель Торо, Дональд А. Воллхейм
Продюсер: Уле Борнедаль, Боб Вайнштейн, Харви Вайнштейн и другие...
Оператор: Дан Лаустсен
Композитор: Марко Белтрами
В ролях: Мира Сорвино (Dr. Susan Tyler), Джереми Нортэм (Dr. Peter Mann), Александр Гудвин (Chuy), Джанкарло Джаннини (Manny), Чарльз С. Даттон (Leonard), Джош Бролин (Josh), Аликс Коромзай (Remy), Ф. Мюррэй Абрахам (Dr. Gates), Джеймс Коста (Ricky), Джейвон Барнвелл (Davis), Норман Ридус (Jeremy), Pak-Kwong Ho (Preacher) и другие...
Описание: Талантливая исследовательница вместе со своим мужем - сотрудником департамента здравоохранения - остановила страшную эпидемию, которая успела унести многие жизни. Но, используя генную инженерию, она нарушила природный баланс - и природа начинает мстить. Издавна в живой природе жертвы научились принимать облик своих врагов: гусеница походила на змею, крылья бабочки - на глаза совы… Но теперь Нечто начинает имитировать самого опасного охотника - человека, и последний сам становится дичью. Остановить злодейское Нечто могут только двое людей, которые вызвали его к жизни…
Качество: BDRip
Формат: MP4
Видео кодек: XviD
Аудио кодек: AAC
Видео: MPEG4, 640x344 (1.860), 23.976 fps, 768 Kbps (0.145 bit/pixel)
Аудио: AAC LC, 48.0 KHz, 2 ch, 125 Kbps, VBR
Скриншоты:



Роберт Родригес принимал участие в работе над фильмом в качестве второго режиссёра, но засекретил свое имя в титрах
Интересно название нового вида тараканов - Иуда. Известно, что Иуда предал Иисуса, как и тараканы в данном фильме
Съемки фильма происходили в Лос-Анджелесе и в старом метро на станции «Дилэнси-стрит» в Торонто, закрытой еще в 1966 году
Длина киноленты после окончательного монтажа картины составила 2957 метров
Болезнь стриклера, от которой страдают дети в этом фильме на самом деле «аутосомно-доминантная артро-офтальмопатия» - воспалительное заболевание глаз

<!--/code_head--> <div class="c-body">General
Complete name                            : G:\1\Rips\mp4\Mimic.1997.BDRip.640x.rus.-TROY.mp4
Format                                   : MPEG-4
Format profile                           : Base Media / Version 2
Codec ID                                 : mp42
File size                                : 715 MiB
Duration                                 : 1h 51mn
Overall bit rate mode                    : Variable
Overall bit rate                         : 895 Kbps
Encoded date                             : UTC 2012-04-30 15:05:53
Tagged date                              : UTC 2012-04-30 15:05:53

Video
ID                                       : 201
Format                                   : MPEG-4 Visual
Format profile                           : Advanced [email protected]
Format settings, BVOP                    : No
Format settings, QPel                    : No
Format settings, GMC                     : No warppoints
Format settings, Matrix                  : Default (H.263)
Codec ID                                 : 20
Duration                                 : 1h 51mn
Bit rate mode                            : Variable
Bit rate                                 : 768 Kbps
Maximum bit rate                         : 3 407 Kbps
Width                                    : 640 pixels
Height                                   : 344 pixels
Display aspect ratio                     : 1.85:1
Frame rate mode                          : Constant
Frame rate                               : 23.976 fps
Color space                              : YUV
Chroma subsampling                       : 4:2:0
Bit depth                                : 8 bits
Scan type                                : Progressive
Compression mode                         : Lossy
Bits/(Pixel*Frame)                       : 0.145
Stream size                              : 614 MiB (86%)
Writing library                          : XviD 64
Encoded date                             : UTC 2012-04-30 15:05:53
Tagged date                              : UTC 2012-04-30 15:06:41

Audio
ID                                       : 101
Format                                   : AAC
Format/Info                              : Advanced Audio Codec
Format profile                           : LC
Codec ID                                 : 40
Duration                                 : 1h 51mn
Bit rate mode                            : Variable
Bit rate                                 : 125 Kbps
Maximum bit rate                         : 146 Kbps
Channel(s)                               : 2 channels
Channel positions                        : Front: L R
Sampling rate                            : 48.0 KHz
Compression mode                         : Lossy
Stream size                              : 99.6 MiB (14%)
Encoded date                             : UTC 2012-04-30 15:06:37
Tagged date                              : UTC 2012-04-30 15:06:41 <!--/code--><!--/code_wrap-->
<!--/code_head--> <div class="c-body">General
Unique ID                                : 226935572032691985433761881011460281548 (0xAABA338C7D29E46B8222150591F894CC)
Complete name                            : G:\1\Sources\Mimic.1997.DC.720p.BluRay.DTS.x264.Rus.mkv
Format                                   : Matroska
Format version                           : Version 2
File size                                : 6.83 GiB
Duration                                 : 1h 51mn
Overall bit rate                         : 8 756 Kbps
Movie name                               : Mimic
Encoded date                             : UTC 2012-04-30 09:55:41
Writing application                      : mkvmerge v5.5.0 ('Healer') built on Apr  6 2012 21:43:24
Writing library                          : libebml v1.2.3 + libmatroska v1.3.0

Video
ID                                       : 1
Format                                   : AVC
Format/Info                              : Advanced Video Codec
Format profile                           : <a href="mailto:[email protected]" class="postLink">[email protected]</a>
Format settings, CABAC                   : Yes
Format settings, ReFrames                : 9 frames
Codec ID                                 : V_MPEG4/ISO/AVC
Duration                                 : 1h 51mn
Bit rate                                 : 7 072 Kbps
Width                                    : 1 280 pixels
Height                                   : 694 pixels
Display aspect ratio                     : 1.85:1
Frame rate                               : 23.976 fps
Color space                              : YUV
Chroma subsampling                       : 4:2:0
Bit depth                                : 8 bits
Scan type                                : Progressive
Bits/(Pixel*Frame)                       : 0.332
Stream size                              : 5.52 GiB (81%)
Writing library                          : x264 core 118 r2085 8a62835
Encoding settings                        : cabac=1 / ref=9 / deblock=1:-3:-3 / analyse=0x3:0x113 / me=esa / subme=9 / psy=1 / psy_rd=1.15:0.00 / mixed_ref=1 / me_range=24 / chroma_me=1 / trellis=2 / 8x8dct=1 / cqm=0 / deadzone=21,11 / fast_pskip=0 /
chroma_qp_offset=-2 / threads=6 / sliced_threads=0 / nr=0 / decimate=0 / interlaced=0 / bluray_compat=0 / constrained_intra=0 / bframes=7 / b_pyramid=2 / b_adapt=2 / b_bias=0 / direct=3 / weightb=1 / open_gop=0 / weightp=2 / keyint=250 /
keyint_min=23 /
scenecut=40 / intra_refresh=0 / rc=crf / mbtree=0 / crf=17.7 / qcomp=0.60 / qpmin=0 / qpmax=69 / qpstep=4 / ip_ratio=1.40 / pb_ratio=1.30 / aq=1:0.65 /
zones=1472,1533,b=1.5/2085,2107,b=1.5/2635,2647,b=1.5/4225,4295,b=1.5/4350,4525,b=1.5/9345,10161,b=1.5/10256,10338,b=1.5/10903,10985,
b=1.5/13184,13791,b=1.5/13826,14345,b=1.5/14426,14680,b=1.5/21050,21294,
b=1.5/21894,21962,b=1.5/30426,30616,b=1.5/39711,40021,b=1.5/58702,59307,
b=1.5/59308,62200,b=1.3/62228,62468,b=1.2/62590,62770,b=1.5/73896,74545,b=1.5/83031,83195,b=1.5/86120,86584,
b=1.5/88180,88564,b=1.5/148726,149319,
b=1.5/151644,151860,b=1.5
Language                                 : English
Default                                  : Yes
Forced                                   : No

Audio
ID                                       : 2
Format                                   : DTS
Format/Info                              : Digital Theater Systems
Codec ID                                 : A_DTS
Duration                                 : 1h 51mn
Bit rate mode                            : Constant
Bit rate                                 : 1 510 Kbps
Channel(s)                               : 6 channels
Channel positions                        : Front: L C R, Side: L R, LFE
Sampling rate                            : 48.0 KHz
Bit depth                                : 24 bits
Compression mode                         : Lossy
Stream size                              : 1.18 GiB (17%)
Title                                    : DVO
Language                                 : Russian
Default                                  : Yes
Forced                                   : No

Text
ID                                       : 3
Format                                   : UTF-8
Codec ID                                 : S_TEXT/UTF8
Codec ID/Info                            : UTF-8 Plain Text
Title                                    : Forced (The Director's Cut)
Language                                 : Russian
Default                                  : Yes
Forced                                   : No <!--/code--><!--/code_wrap-->



Трекер:  [ 07-Май-2012 18:02 ]

  

Скачать .torrent

Размер .torrent файла 14 KB


Размер: 715 MB
Хэш (hash) релиза: 30d960a19c40d74deb52ae5d7bf02eec5babafce

Еще никто не оставлял запись к записи скачать торрент [VIDEO] Мутанты Mimic . Будь первым!

!Обратная связь