Red Neon Apple Dark Theme | Ai mo Kawarazu | 100 Karat

Скачать через торрент музыку VA - The Crowning Of Prince Jammy - 1999, FLAC бесплатно без регистрации torrent

Статистика раздачи
Размер:  413 MB   |    Зарегистрирован:  6 лет 2 месяца   |    .torrent скачан:  31 раз   |   
Раздают:  1  
   
загрузка...
 
Автор Сообщение

_N_

avatar _N_


The Crowning Of Prince Jammy

Жанр: Reggae, Dub
Страна-производитель диска: UK
Год издания: 1999
Издатель (лейбл): Pressure Sounds
Номер по каталогу: PSCD25
Аудиокодек: FLAC (*.flac)
Тип рипа: image+.cue
Битрейт аудио: lossless
Продолжительность: 1:05:55
Источник (релизер): cd
Наличие сканов в содержимом раздачи: нет
Треклист:
01 Black Uhuru - King Selassie I (4:47)
02 Wayne Smith - Time Is A Moment In Space (3:15)
03 Prince Jammy - Life Is A Moment In Space (3:12)
04 Johnny Osbourne - Jahovia (4:11)
05 Prince Jammy - Jahovia (Version) (3:29)
06 Half Pint - Puchie Lou (3:16)
07 Mighty Rudo - Waterhouse (4:13)
08 Earl Zero - Please Officer (7:08)
09 Augustus Pablo - Pablo In Moonlight City (7:04)
10 Half Pint - Mr Landlord (3:24)
11 Prince Jammy - The Crowning Of Prince Jammy (3:04)
12 Black Crucial - Mr Vincent (2:50)
13 Johnny Osbourne - Mr Marshall (3:47)
14 Prince Jammy - Return of Jammy's HiFi (4:09)
15 Sugar Minott - Give the People What They Want (3:47)
16 Hugh Mundell - Jah Fire Will Be Burning (4:20)
  
Exact Audio Copy V1.0 beta 3 from 29. August 2011

EAC extraction logfile from 29. April 2012, 23:09

Various / The Crowning Of Prince Jammy

Used drive : Optiarc BD RW BD-5300S Adapter: 1 ID: 1

Read mode : SecureUtilize accurate stream : YesDefeat audio cache : YesMake use of C2 pointers : No

Read offset correction : 6Overread into Lead-In and Lead-Out : NoFill up missing offset samples with silence : YesDelete leading and trailing silent blocks : NoNull samples used in CRC calculations : YesUsed interface : Installed external ASPI interface

Used output format : User Defined EncoderSelected bitrate : 1024 kBit/sQuality : HighAdd ID3 tag : NoCommand line compressor : C:\Program Files\Exact Audio Copy\Flac\flac.exeAdditional command line options : -8 -V %source%

TOC of the extracted CD

Track | Start | Length | Start sector | End sector --------------------------------------------------------- 1 | 0:00.00 | 4:46.47 | 0 | 21496 2 | 4:46.47 | 3:14.43 | 21497 | 36089 3 | 8:01.15 | 3:12.30 | 36090 | 50519 4 | 11:13.45 | 4:11.05 | 50520 | 69349 5 | 15:24.50 | 3:28.57 | 69350 | 85006 6 | 18:53.32 | 3:15.63 | 85007 | 99694 7 | 22:09.20 | 4:13.20 | 99695 | 118689 8 | 26:22.40 | 7:07.57 | 118690 | 150771 9 | 33:30.22 | 7:03.53 | 150772 | 182549 10 | 40:34.00 | 3:23.50 | 182550 | 197824 11 | 43:57.50 | 3:03.60 | 197825 | 211609 12 | 47:01.35 | 2:50.30 | 211610 | 224389 13 | 49:51.65 | 3:46.52 | 224390 | 241391 14 | 53:38.42 | 4:09.35 | 241392 | 260101 15 | 57:48.02 | 3:46.65 | 260102 | 277116 16 | 61:34.67 | 4:20.13 | 277117 | 296629

Range status and errors

Selected range

Filename J:\temp\nnm\Various - The Crowning Of Prince Jammy.wav

Peak level 99.5 % Extraction speed 7.2 X Range quality 100.0 % Test CRC 5809F576 Copy CRC 5809F576 Copy OK

No errors occurred

AccurateRip summary

Track 1 cannot be verified as accurate (confidence 3) [97C121DC], AccurateRip returned [96F6045F] (AR v2)Track 2 cannot be verified as accurate (confidence 3) [0698F30F], AccurateRip returned [18DADAC2] (AR v2)Track 3 cannot be verified as accurate (confidence 3) [84E465D7], AccurateRip returned [5D9647A8] (AR v2)Track 4 cannot be verified as accurate (confidence 3) [9CC87475], AccurateRip returned [03D0EE05] (AR v2)Track 5 cannot be verified as accurate (confidence 3) [5BF25EA8], AccurateRip returned [67C71922] (AR v2)Track 6 cannot be verified as accurate (confidence 3) [65EEE527], AccurateRip returned [E8B1E091] (AR v2)Track 7 cannot be verified as accurate (confidence 3) [15DBEFE1], AccurateRip returned [0D3A32E3] (AR v2)Track 8 cannot be verified as accurate (confidence 3) [0FD916D4], AccurateRip returned [B8EF57FB] (AR v2)Track 9 cannot be verified as accurate (confidence 3) [3944C78C], AccurateRip returned [0B2C19B5] (AR v2)Track 10 cannot be verified as accurate (confidence 3) [9885E7CE], AccurateRip returned [689CCF42] (AR v2)Track 11 cannot be verified as accurate (confidence 3) [23E8D327], AccurateRip returned [8140B462] (AR v2)Track 12 cannot be verified as accurate (confidence 3) [4CCEB394], AccurateRip returned [EDBA931D] (AR v2)Track 13 cannot be verified as accurate (confidence 3) [B218C8E3], AccurateRip returned [DBB84833] (AR v2)Track 14 cannot be verified as accurate (confidence 3) [8069C675], AccurateRip returned [E4BC19BB] (AR v2)Track 15 cannot be verified as accurate (confidence 3) [C815C6A5], AccurateRip returned [C8B80AA7] (AR v2)Track 16 cannot be verified as accurate (confidence 3) [2CBF0538], AccurateRip returned [35F743A4] (AR v2)

No tracks could be verified as accurateYou may have a different pressing from the one(s) in the database

End of status report

---- CUETools DB Plugin V2.1.3

[CTDB TOCID: b00Z7Bbls0HSHYKiauXPRqg281I-] found, Submit result: b00Z7Bbls0HSHYKiauXPRqg281I- has been confirmed[5614fdbb] (1/1) Accurately ripped

==== Log checksum 9C17DD4E3EF06BC55533185260F077D04ADE1CABBE1A3F91E99B1C54FC196843 ====


Трекер:  [ 04-Май-2012 15:46 ]

  

Скачать .torrent

Размер .torrent файла 17 KB


Размер: 413 MB
Хэш (hash) релиза: 6348026c45150931f640c0a45f896064438136cc

Еще никто не оставлял запись к записи скачать торрент VA - The Crowning Of Prince Jammy - 1999, FLAC . Будь первым!

!Обратная связь