Télécharger | Episode 06 (Sub) | More new releases tagged historical fiction...

Скачать через торрент The Wanted - The Wanted бесплатно русская версия torrent активатор

Статистика раздачи
Размер:  158 MB   |    Зарегистрирован:  6 лет 2 месяца   |    .torrent скачан:  53 раза   |   
Раздают:  1  
   
загрузка...
 
Автор Сообщение

Galfimbul

avatar Galfimbul


The Wanted - The Wanted (Special Edition)

Жанр: Pop Страна: USA Год издания: 2012
Аудио кодек: AAC Тип рипа: tracks Битрейт аудио: 256 kbps Продолжительность: 0:41:26 Источник: iTunes Store
Тексты: отсутствуют Наличие сканов в содержимом раздачи: Digital Booklet
Треклист:
01 Glad You Came
02 Chasing the Sun
03 All Time Low
04 Satellite
05 Lightning
06 Heart Vacancy
07 Gold Forever
08 Lose My Mind
09 Warzone
10 Rocket
11 Glad You Came [video]
12 Lightning [video]
  
GeneralComplete name : 11 Glad You Came.m4vFormat : MPEG-4Codec ID : M4VFile size : 42.2 MiBDuration : 3mn 15sOverall bit rate : 1 811 KbpsMovie name : Glad You CameAlbum : The Wanted (Special Edition)Album/Performer : The WantedTrack name/Position : 11Track name/Total : 0Performer : The WantedGenre : PopRecorded date : UTC 2012-04-24 07:00:00Encoded date : UTC 2012-04-12 22:43:00Tagged date : UTC 2012-04-24 15:35:33Writing library : Apple QuickTimeCopyright : ℗ (C) 2011 Global Talent Records Limited, under exclusive licence to Universal Island Records, a division of Universal Music Operations LimitedCover : YescnID : 518831227rtng : 0atID : 3445978plID : 518831025geID : 1614stik : 6soar : Wantedxid : Universal:isrc:GBUV71100951flvr : 6:640x480LC-256iTunMOVI : <?xml version="1.0" encoding="UTF-8"?> / <!DOCTYPE plist PUBLIC "-//Apple//DTD PLIST 1.0//EN" "http://www.apple.com/DTDs/PropertyList-1.0.dtd"> / <plist version="1.0"> / <dict> / <key>asset-info</key> / <dict> / <key>file-size</key> / <integer>44236033</integer> / <key>flavor</key> / <string>6:640x480LC-256</string> / <key>screen-format</key> / <string>widescreen</string> / </dict> / </dict> / </plist>

VideoID : 1Format : AVCFormat/Info : Advanced Video CodecFormat profile : <a href="mailto:[email protected]" class="postLink">[email protected]</a> settings, CABAC : NoFormat settings, ReFrames : 1 frameCodec ID : avc1Codec ID/Info : Advanced Video CodingDuration : 3mn 15sBit rate : 1 512 KbpsWidth : 640 pixelsHeight : 304 pixelsDisplay aspect ratio : 2.2:1Frame rate mode : ConstantFrame rate : 23.976 fpsColor space : YUVChroma subsampling : 4:2:0Bit depth : 8 bitsScan type : ProgressiveBits/(Pixel*Frame) : 0.324Stream size : 35.2 MiB (83%)Language : EnglishEncoded date : UTC 2012-04-12 22:45:01Tagged date : UTC 2012-04-12 22:45:05Color primaries : BT.601-6 525, BT.1358 525, BT.1700 NTSC, SMPTE 170MTransfer characteristics : BT.709-5, BT.1361Matrix coefficients : BT.601-6 525, BT.1358 525, BT.1700 NTSC, SMPTE 170M

AudioID : 2Format : AACFormat/Info : Advanced Audio CodecFormat profile : LCCodec ID : 40Duration : 3mn 15sSource duration : 3mn 15sBit rate mode : ConstantBit rate : 256 KbpsChannel(s) : 2 channelsChannel positions : Front: L RSampling rate : 44.1 KHzCompression mode : LossyStream size : 5.83 MiB (14%)Source stream size : 5.83 MiB (14%)Language : EnglishEncoded date : UTC 2012-04-12 22:45:01Tagged date : UTC 2012-04-24 15:35:33

MenuID : 3Language : EnglishEncoded date : UTC 2012-04-12 22:45:05Tagged date : UTC 2012-04-12 22:45:05
  
GeneralComplete name : 12 Lightning.m4vFormat : MPEG-4Codec ID : M4VFile size : 43.3 MiBDuration : 3mn 22sOverall bit rate : 1 795 KbpsMovie name : LightningAlbum : The Wanted (Special Edition)Album/Performer : The WantedTrack name/Position : 12Track name/Total : 0Performer : The WantedGenre : PopRecorded date : UTC 2012-04-24 07:00:00Encoded date : UTC 2012-04-12 22:43:09Tagged date : UTC 2012-04-24 15:35:34Writing library : Apple QuickTimeCopyright : ℗ (C) 2011 Global Talent Records Limited, under exclusive licence to Universal Island Records, a division of Universal Music Operations LimitedCover : YescnID : 518831350rtng : 0atID : 652743plID : 518831025geID : 1614stik : 6soar : Wantedxid : Universal:isrc:GBUV71101385flvr : 6:640x480LC-256iTunMOVI : <?xml version="1.0" encoding="UTF-8"?> / <!DOCTYPE plist PUBLIC "-//Apple//DTD PLIST 1.0//EN" "http://www.apple.com/DTDs/PropertyList-1.0.dtd"> / <plist version="1.0"> / <dict> / <key>asset-info</key> / <dict> / <key>file-size</key> / <integer>45368298</integer> / <key>flavor</key> / <string>6:640x480LC-256</string> / <key>screen-format</key> / <string>widescreen</string> / </dict> / </dict> / </plist>

VideoID : 1Format : AVCFormat/Info : Advanced Video CodecFormat profile : <a href="mailto:[email protected]" class="postLink">[email protected]</a> settings, CABAC : NoFormat settings, ReFrames : 1 frameCodec ID : avc1Codec ID/Info : Advanced Video CodingDuration : 3mn 22sBit rate : 1 499 KbpsWidth : 640 pixelsHeight : 256 pixelsDisplay aspect ratio : 2.500Frame rate mode : ConstantFrame rate : 25.000 fpsColor space : YUVChroma subsampling : 4:2:0Bit depth : 8 bitsScan type : ProgressiveBits/(Pixel*Frame) : 0.366Stream size : 36.1 MiB (84%)Language : EnglishEncoded date : UTC 2012-04-12 22:46:20Tagged date : UTC 2012-04-12 22:46:24Color primaries : BT.601-6 525, BT.1358 525, BT.1700 NTSC, SMPTE 170MTransfer characteristics : BT.709-5, BT.1361Matrix coefficients : BT.601-6 525, BT.1358 525, BT.1700 NTSC, SMPTE 170M

AudioID : 2Format : AACFormat/Info : Advanced Audio CodecFormat profile : LCCodec ID : 40Duration : 3mn 22sSource duration : 3mn 22sBit rate mode : ConstantBit rate : 256 KbpsChannel(s) : 2 channelsChannel positions : Front: L RSampling rate : 44.1 KHzCompression mode : LossyStream size : 5.99 MiB (14%)Source stream size : 5.99 MiB (14%)Language : EnglishEncoded date : UTC 2012-04-12 22:46:20Tagged date : UTC 2012-04-24 15:35:34

MenuID : 3Language : EnglishEncoded date : UTC 2012-04-12 22:46:23Tagged date : UTC 2012-04-12 22:46:24


Трекер:  [ 07-Май-2012 18:03 ]

  

Скачать .torrent

Размер .torrent файла 13 KB


Размер: 158 MB
Хэш (hash) релиза: fef213193495e1a307631624f3abcca682798154

Еще никто не оставлял запись к записи скачать торрент The Wanted - The Wanted . Будь первым!

!Обратная связь