Ed, Edd und Eddy | épisode 21 streaming Monument Point | Liga Sprawiedliwych / Justice League

Скачать через торрент [VIDEO] Клятва The Vow бесплатно русская версия torrent активатор

Статистика раздачи
Размер:  667 MB   |    Зарегистрирован:  6 лет 2 месяца   |    .torrent скачан:  43 раза   |   
Раздают:  1  
   
загрузка...
 
Автор Сообщение

Galfimbul

avatar Galfimbul


Клятва / The Vow

Год выпуска: 2012

Страна: США, Германия, Франция, Бразилия, Великобритания,
Жанр: драма, мелодрама
Продолжительность: 01:43:54
Перевод: Профессиональный (полное дублирование)
Русские субтитры: нет

Режиссер: Майкл Сакси / Michael Sucsy

В ролях: Рэйчел МакАдамс, Ченнинг Татум, Сэм Нил, Скотт Спидман, Джессика Лэнг, Джессика МакНэми, Венди Крюсон, Татьяна Маслани, Лукас Брайант, Джои Клейн

Описание: Во время медового месяца Пейдж и Лео попадают в автокатастрофу. Пока жена находится в коме, Лео не отходит от ее кровати ни на час, но возвращение девушки к жизни омрачено потерей памяти — она не узнает любимого и не помнит об их романе. И тогда Лео решает заново завоевать сердце Пейдж.
Качество: BDRip
Формат: MP4
Видео кодек: XviD
Аудио кодек: AAC
Видео: XviD, 640x264 2.40:1, 768 Kbps, 23.976 fps
Аудио: AAC, 128 Kbps, 48.0 KHz, 2 ch.
  
GeneralComplete name : D:\!РИПЫ\Новая папка\The Vow (2012).mp4Format : MPEG-4Format profile : Base Media / Version 2Codec ID : mp42File size : 667 MiBDuration : 1h 43mnOverall bit rate : 898 KbpsEncoded date : UTC 2012-04-22 06:49:30Tagged date : UTC 2012-04-22 06:49:30

VideoID : 201Format : MPEG-4 VisualFormat profile : Advanced [email protected] settings, BVOP : NoFormat settings, QPel : NoFormat settings, GMC : No warppointsFormat settings, Matrix : Default (H.263)Codec ID : 20Duration : 1h 43mnBit rate mode : VariableBit rate : 768 KbpsMaximum bit rate : 3 807 KbpsWidth : 640 pixelsHeight : 264 pixelsDisplay aspect ratio : 2.40:1Frame rate mode : VariableFrame rate : 23.929 fpsOriginal frame rate : 23.976 fpsMinimum frame rate : 0.387 fpsMaximum frame rate : 23.976 fpsColor space : YUVChroma subsampling : 4:2:0Bit depth : 8 bitsScan type : ProgressiveCompression mode : LossyBits/(Pixel*Frame) : 0.190Stream size : 571 MiB (85%)Title : Imported with GPAC 0.4.6-DEV (build 1)Writing library : XviD 1.2.1 (UTC 2008-12-04)Encoded date : UTC 2012-04-22 06:49:30Tagged date : UTC 2012-04-22 06:49:58

AudioID : 101Format : AACFormat/Info : Advanced Audio CodecFormat profile : LCCodec ID : 40Duration : 1h 43mnBit rate mode : VariableBit rate : 128 KbpsMaximum bit rate : 191 KbpsChannel(s) : 2 channelsChannel positions : Front: L RSampling rate : 48.0 KHzCompression mode : LossyStream size : 94.9 MiB (14%)Encoded date : UTC 2012-04-22 06:49:56Tagged date : UTC 2012-04-22 06:49:58



Трекер:  [ 07-Май-2012 18:03 ]

  

Скачать .torrent

Размер .torrent файла 13 KB


Размер: 667 MB
Хэш (hash) релиза: 57fb058d26ec2615a0f19244cb7981b072c13f3f

Еще никто не оставлял запись к записи скачать торрент [VIDEO] Клятва The Vow . Будь первым!

!Обратная связь