Asian fuck me hard mpg | Qui pour une game ? | END 6 Life on Mars (2018)

Скачать через торрент музыку VA - Babylon Is Ours: The USA in Dub - 2003, FLAC бесплатно без регистрации torrent

Статистика раздачи
Размер:  399 MB   |    Зарегистрирован:  6 лет 3 месяца   |    .torrent скачан:  46 раз   |   
Раздают:  1  
   
загрузка...
 
Автор Сообщение

_N_

avatar _N_


Babylon Is Ours: The USA in Dub


Жанр: Reggae, Dub
Страна: United States
Год издания диска: 2003
Издатель (лейбл): Select Cuts
Номер по каталогу: SC2009
Страна-производитель диска: DE
Аудиокодек: FLAC (*.flac)
Тип рипа: FLAC (tracks+.cue)
Битрейт аудио: lossless
Продолжительность: 1:05:03
Источник (релизер): What.CD (ahoyahoy)
Наличие сканов в содержимом раздачи: нет
Треклист:
Cosmic Rocker & Zeb feat. Harmony - Dub (6:29)
Phase Selector - Warrior Style (4:52)
Dub Congress - Dub Up the Hemp (6:26)
Avatars of Dub - Uptown Jungle (6:06)
Tino Corp feat. Jack Dangers - My Name Is Tino (4:49)
Mark Pistel's Electronic Dub Collective - Orenda (5:44)
Zeb - Distant (5:27)
Eastern Dub Tactik - Set Your Soul on Fire (5:01)
Ben Wa - Ether Real (5:02)
Sub Oslo - Prisoner of Dub (6:27)
Otaku - Harsh Reality (3:41)
Systemwide feat. Dr. Israel & DJ Collage - Where You Gonna Run (4:59)
Доп. ссылки: MusicBrainz
  
Exact Audio Copy V0.99 prebeta 5 from 4. May 2009

EAC extraction logfile from 22. September 2010, 0:15

Various / Babylon Is Ours

Used drive : HL-DT-STDVD+-RW GU10N Adapter: 0 ID: 1

Read mode : SecureUtilize accurate stream : YesDefeat audio cache : YesMake use of C2 pointers : No

Read offset correction : 667Overread into Lead-In and Lead-Out : NoFill up missing offset samples with silence : YesDelete leading and trailing silent blocks : NoNull samples used in CRC calculations : YesUsed interface : Native Win32 interface for Win NT & 2000Gap handling : Appended to previous track

Used output format : User Defined EncoderSelected bitrate : 768 kBit/sQuality : HighAdd ID3 tag : NoCommand line compressor : C:\Program Files\Exact Audio Copy\FLAC\FLAC.EXEAdditional command line options : -V -8 -T "artist=%a" -T "title=%t" -T "album=%g" -T "date=%y" -T "tracknumber=%n" -T "genre=%m" %s

TOC of the extracted CD

Track | Start | Length | Start sector | End sector --------------------------------------------------------- 1 | 0:00.00 | 6:28.52 | 0 | 29151 2 | 6:28.52 | 4:52.12 | 29152 | 51063 3 | 11:20.64 | 6:25.71 | 51064 | 80009 4 | 17:46.60 | 6:05.62 | 80010 | 107446 5 | 23:52.47 | 4:49.33 | 107447 | 129154 6 | 28:42.05 | 5:43.55 | 129155 | 154934 7 | 34:25.60 | 5:26.40 | 154935 | 179424 8 | 39:52.25 | 5:00.42 | 179425 | 201966 9 | 44:52.67 | 5:02.08 | 201967 | 224624 10 | 49:55.00 | 6:26.67 | 224625 | 253641 11 | 56:21.67 | 3:40.43 | 253642 | 270184 12 | 60:02.35 | 4:58.70 | 270185 | 292604

Track 1

Filename C:\EACRIPS\Babylon Is Ours - 2003\01 -Cosmic Rocker & Zeb (Feat. Harmony) - Dub.wav

Pre-gap length 0:00:02.00

Peak level 84.1 % Track quality 100.0 % Test CRC 8FD3ACD2 Copy CRC 8FD3ACD2 Track not present in AccurateRip database Copy OK

Track 2

Filename C:\EACRIPS\Babylon Is Ours - 2003\02 -Phase Selector - Warrior Style.wav

Peak level 97.7 % Track quality 100.0 % Test CRC D93B6B45 Copy CRC D93B6B45 Track not present in AccurateRip database Copy OK

Track 3

Filename C:\EACRIPS\Babylon Is Ours - 2003\03 -Dub Congress - Dub Up The Hemp.wav

Peak level 100.0 % Track quality 100.0 % Test CRC 36C8E57E Copy CRC 36C8E57E Track not present in AccurateRip database Copy OK

Track 4

Filename C:\EACRIPS\Babylon Is Ours - 2003\04 -Avatars Of Dub - Uptown Jungle.wav

Peak level 100.0 % Track quality 100.0 % Test CRC 3DC63031 Copy CRC 3DC63031 Track not present in AccurateRip database Copy OK

Track 5

Filename C:\EACRIPS\Babylon Is Ours - 2003\05 -Tino Corp (Feat. Jack Dangers) - My Name Is Tino.wav

Peak level 99.6 % Track quality 100.0 % Test CRC D606DE8D Copy CRC D606DE8D Track not present in AccurateRip database Copy OK

Track 6

Filename C:\EACRIPS\Babylon Is Ours - 2003\06 -Mark Pistel's Electronic Dub Collective - Orenda.wav

Peak level 98.9 % Track quality 100.0 % Test CRC FEF6F777 Copy CRC FEF6F777 Track not present in AccurateRip database Copy OK

Track 7

Filename C:\EACRIPS\Babylon Is Ours - 2003\07 -Zeb - Distant.wav

Peak level 100.0 % Track quality 100.0 % Test CRC 7E7F9516 Copy CRC 7E7F9516 Track not present in AccurateRip database Copy OK

Track 8

Filename C:\EACRIPS\Babylon Is Ours - 2003\08 -Eastern Dub Tactik - Set Your Soul On Fire.wav

Peak level 100.0 % Track quality 100.0 % Test CRC 7B47078B Copy CRC 7B47078B Track not present in AccurateRip database Copy OK

Track 9

Filename C:\EACRIPS\Babylon Is Ours - 2003\09 -Ben Wa - Ether Real.wav

Peak level 99.9 % Track quality 100.0 % Test CRC F6136225 Copy CRC F6136225 Track not present in AccurateRip database Copy OK

Track 10

Filename C:\EACRIPS\Babylon Is Ours - 2003\10 -Sub Oslo - Prisoner Of Dub.wav

Peak level 100.0 % Track quality 100.0 % Test CRC 134F9835 Copy CRC 134F9835 Track not present in AccurateRip database Copy OK

Track 11

Filename C:\EACRIPS\Babylon Is Ours - 2003\11 -Otaku - Harsh Reality.wav

Peak level 98.8 % Track quality 100.0 % Test CRC 50875862 Copy CRC 50875862 Track not present in AccurateRip database Copy OK

Track 12

Filename C:\EACRIPS\Babylon Is Ours - 2003\12 -Systemwide Feat. Dr. Israel & DJ Collage - Where You Gonna Run.wav

Peak level 100.0 % Track quality 100.0 % Test CRC 65125D9E Copy CRC 65125D9E Track not present in AccurateRip database Copy OK

None of the tracks are present in the AccurateRip database

No errors occurred

End of status report
  
REM GENRE ReggaeREM DATE 2003REM DISCID B60F3D0CREM COMMENT "ExactAudioCopy v0.99pb5"FILE "Babylon Is Ours - 2003\01 -Cosmic Rocker & Zeb (Feat. Harmony) - Dub.wav" WAVE TRACK 01 AUDIO INDEX 01 00:00:00FILE "Babylon Is Ours - 2003\02 -Phase Selector - Warrior Style.wav" WAVE TRACK 02 AUDIO INDEX 01 00:00:00FILE "Babylon Is Ours - 2003\03 -Dub Congress - Dub Up The Hemp.wav" WAVE TRACK 03 AUDIO INDEX 01 00:00:00FILE "Babylon Is Ours - 2003\04 -Avatars Of Dub - Uptown Jungle.wav" WAVE TRACK 04 AUDIO INDEX 01 00:00:00FILE "Babylon Is Ours - 2003\05 -Tino Corp (Feat. Jack Dangers) - My Name Is Tino.wav" WAVE TRACK 05 AUDIO INDEX 01 00:00:00FILE "Babylon Is Ours - 2003\06 -Mark Pistel's Electronic Dub Collective - Orenda.wav" WAVE TRACK 06 AUDIO INDEX 01 00:00:00FILE "Babylon Is Ours - 2003\07 -Zeb - Distant.wav" WAVE TRACK 07 AUDIO INDEX 01 00:00:00FILE "Babylon Is Ours - 2003\08 -Eastern Dub Tactik - Set Your Soul On Fire.wav" WAVE TRACK 08 AUDIO INDEX 01 00:00:00FILE "Babylon Is Ours - 2003\09 -Ben Wa - Ether Real.wav" WAVE TRACK 09 AUDIO INDEX 01 00:00:00FILE "Babylon Is Ours - 2003\10 -Sub Oslo - Prisoner Of Dub.wav" WAVE TRACK 10 AUDIO INDEX 01 00:00:00FILE "Babylon Is Ours - 2003\11 -Otaku - Harsh Reality.wav" WAVE TRACK 11 AUDIO INDEX 01 00:00:00FILE "Babylon Is Ours - 2003\12 -Systemwide Feat. Dr. Israel & DJ Collage - Where You Gonna Run.wav" WAVE TRACK 12 AUDIO INDEX 01 00:00:00


Трекер:  [ 27-Апр-2012 13:48 ]

  

Скачать .torrent

Размер .torrent файла 17 KB


Размер: 399 MB
Хэш (hash) релиза: 0b59e7ff9212a2d68a4534061eea1aac429466cb

Еще никто не оставлял запись к записи скачать торрент VA - Babylon Is Ours: The USA in Dub - 2003, FLAC . Будь первым!

!Обратная связь