Mom is Pretty Too | Télécharger Part 4 | Warp 2012 ENG Repack by Sash HD

Скачать через торрент Placebo - Дискография iTunes Discography бесплатно русская версия torrent активатор

Статистика раздачи
Размер:  1.63 GB   |    Зарегистрирован:  6 лет 2 месяца   |    .torrent скачан:  64 раза   |   
Раздают:  1  
   
загрузка...
 
Автор Сообщение

Galfimbul

avatar Galfimbul


Placebo / iTunes Discography & Videography

Жанр: Rock
Страна: US, UK
Год издания: 1998-2011
Издатель (лейбл): EMI, Virgin Records, Hut Records, Caroline Records
Аудио кодек: AAC
Тип рипа: tracks
Битрейт аудио: 256 kbps
Продолжительность: 11:58:45
Источник: iTunes Store
Тексты: отсутствуют
Наличие сканов в содержимом раздачи: Digital Booklets
Продолжительность: 00:56:09
Источник: http://itunes.apple.com/us/album/battle-for-the-sun/id318460856

Треклист:
1. Kitty Litter
2. Ashtray Heart
3. Battle for the Sun
4. For What It's Worth
5. Devil In the Details
6. Bright Lights
7. Speaking In Tongues
8. The Never-Ending Why
9. Julien
10. Happy You're Gone
11. Breathe Underwater
12. Come Undone
13. Kings of Medicine
14. In a Funk (Bonus Track)
Продолжительность: 00:50:49
Источник: http://itunes.apple.com/gb/album/black-market-music/id453222626

Треклист:
1. Taste in Men
2. Days Before You Came
3. Special K
4. Spite & Malice
5. Passive Aggressive
6. Black-Eyed
7. Blue American
8. Slave to the Wage
9. Commercial for Levi
10. Haemoglobin
11. Narcoleptic
12. Peeping Tom
13. Black Market Blood (Bonus Track)
Продолжительность: 00:40:40
Источник: http://itunes.apple.com/us/album/covers/id453246579

Треклист:
1. Running Up That Hill
2. Where Is My Mind (XFM Live Version)
3. Bigmouth Strikes Again
4. Johnny and Mary
5. 20th Century Boy
6. The Ballad of Melody Nelson (Ballade de Melody Nelson)
7. Holocaust
8. I Feel You
9. Daddy Cool
10. Jackie
Продолжительность: 01:19:15
Источник:http://itunes.apple.com/gb/album/itunes-festival-london-2009/id343301924

Треклист:
1. Kitty Litter (Live)
2. Ashtray Heart (Live)
3. Battle for the Sun (Live)
4. For What It's Worth (Live)
5. Soulmates (Live)
6. Speak In Tongues (Live)
7. Follow the Cops Back Home (Live)
8. Every You Every Me (Live)
9. Special Needs (Live)
10. The Never-Ending Why (Live)
11. Devil In the Details (Live)
12. Happy You're Gone (Live)
13. Meds (Live)
14. Come Undone (Live)
15. Special K (Live)
16. Song to Say Goodbye (Live)
17. Infra-Red (Live)
18. The Bitter End (Live)
19. Taste In Men (Live)
Продолжительность: 00:37:55
Источник:http://itunes.apple.com/gb/album/live-at-angkor-wat/id488105688

Треклист:
1. Because I Want You (Live At Angkor Wat)
2. Follow the Cops Back Home (Live At Angkor Wat)
3. Black-Eyed (Live At Angkor Wat)
4. Meds (Live At Angkor Wat)
5. Post Blue (Live At Angkor Wat)
6. Blind (Live At Angkor Wat)
7. Drag (Live At Angkor Wat)
8. Teenage Angst (Live At Angkor Wat)
9. Twenty Years (Live At Angkor Wat)
Продолжительность: 00:28:46
Источник: альбом был доступен временно

Треклист:
1. Meds
2. Infra-Red
3. Drag
4. Follow the Cops Back Home
5. Post Blue
6. Song to Say Goodbye
7. The Bitter End
8. Special K
Продолжительность: 00:51:35
Источник:http://itunes.apple.com/us/album/meds/id453250978

Треклист:
1. Meds (feat. Alison Mosshart)
2. Infra-Red
3. Drag
4. Space Monkey
5. Follow the Cops Back Home
6. Post Blue
7. Because I Want You
8. Blind
9. Pierrot the Clown
10. Broken Promise (feat. Michael Stipe)
11. One of a Kind
12. In the Cold Light of Morning
13. Song to Say Goodbye
14. Because I Want You (Video)
Параметры видео

Качество: WEB-DL
Продолжительность: 00:03:39
Формат: MPEG-4 (контейнер m4v)
Видео: H.264, 640 x 360 px (16:9), 25.000 fps, ~1717 kbps, без анаморфа
Аудио: Английский (AAC Stereo, 256 Кбит/сек, 44,1 КГц)
Общее
Полное имя : C:\Users\Ромашка\Desktop\База музыки с блога\Placebo\Placebo - Meds\14 Because I Want You.m4v
Формат : MPEG-4
Идентификатор кодека : M4V
Размер файла : 47,1 Мбайт
Продолжительность : 3 м. 38 с.
Режим общего битрейта : Переменный
Общий поток : 1804 Кбит/сек
Название фильма : Because I Want You
Альбом : Meds
Альбом/Исполнитель : Placebo
Трек/Положение : 14
Трек/Всего : 0
Исполнитель : Placebo
Жанр : Rock
Дата записи : 2010
Дата кодирования : UTC 2007-06-14 20:15:33
Дата пометки : UTC 2007-06-14 20:23:18
Библиотека кодирования : Apple QuickTime
Обложка : Yes
apID : <a href="mailto:[email protected]" class="postLink">[email protected]</a>
cnID : 126307730
rtng : 0
atID : 649817
plID : 129298840
geID : 1621
sfID : 143444
akID : 0
stik : 6
purd : 2010-07-03 06:50:56

Видео
Идентификатор : 1
Формат : AVC
Формат/Информация : Advanced Video Codec
Профиль формата : <a href="mailto:[email protected]" class="postLink">[email protected]</a>
Параметр CABAC формата : Нет
Параметр ReFrames формата : 1 кадр
Идентификатор кодека : avc1
Идентификатор кодека/Информация : Advanced Video Coding
Продолжительность : 3 м. 38 с.
Вид битрейта : Переменный
Битрейт : 1503 Кбит/сек
Максимальный битрейт : 4006 Кбит/сек
Ширина : 640 пикселей
Высота : 360 пикселей
Соотношение сторон : 16:9
Режим частоты кадров : Постоянный
Частота кадров : 25,000 кадров/сек
Цветовое пространство : YUV
Субдискретизация насыщенности : 4:2:0
Битовая глубина : 8 бит
Тип развёртки : Прогрессивная
Бит/(Пиксели*Кадры) : 0.261
Размер потока : 39,2 Мбайт (83%)
Язык : English
Дата кодирования : UTC 2007-06-14 20:22:57
Дата пометки : UTC 2007-06-14 20:23:18
Основные цвета : BT.601-6 525, BT.1358 525, BT.1700 NTSC, SMPTE 170M
Характеристики трансфера : BT.709-5, BT.1361
Коэффициенты матрицы : BT.601-6 525, BT.1358 525, BT.1700 NTSC, SMPTE 170M

Аудио
Идентификатор : 2
Формат : AAC
Формат/Информация : Advanced Audio Codec
Профиль формата : LC
Идентификатор кодека : 40
Продолжительность : 3 м. 38 с.
Продолжительность оригинала : 3 м. 38 с.
Вид битрейта : Постоянный
Битрейт : 256 Кбит/сек
Каналы : 2 канала
Расположение каналов : Front: L R
Частота : 44,1 КГц
Метод сжатия : С потерями
Размер потока : 6,68 Мбайт (14%)
Размер потока оригинала : 6,68 Мбайт (14%)
Язык : English
Дата кодирования : UTC 2007-06-14 20:22:57
Дата пометки : UTC 2007-06-14 20:23:18

Меню
Идентификатор : 3
Язык : English
Дата кодирования : UTC 2007-06-14 20:23:17
Дата пометки : UTC 2007-06-14 20:23:18
Продолжительность: 01:07:14
Источник:http://itunes.apple.com/us/album/once-more-feeling-singles/id453256611

Треклист:
1. 36 Degrees
2. Teenage Angst
3. Nancy Boy (Radio Edit)
4. Bruise Pristine
5. Pure Morning (Radio Edit)
6. You Don't Care About Us
7. Every You Every Me (Single Mix)
8. Without You I'm Nothing (Single Mix)
9. Taste In Men (Radio Edit)
10. Slave to the Wage (Radio Edit)
11. Special K
12. Black-Eyed
13. The Bitter End
14. This Picture
15. Special Needs (Edit)
16. English Summer Rain (Single Version)
17. Protège Moi
18. I Do
19. Twenty Years
Продолжительность: 01:04:08
Источник: данная версия (коллекционная) издания была доступна временно

Треклист:
1. Come Home
2. Teenage Angst
3. Bionic
4. 36 Degrees
5. Hang On to Your IQ
6. Nancy Boy
7. I Know
8. Bruise Pristine
9. Lady of the Flowers
10. Swallow
11. Paycheck (Demo)
12. Flesh Mechanic (Demo)
13. Drowning By Numbers
14. Slackerbitch
15. H K Farewell
Продолжительность: 00:46:30
Источник:http://itunes.apple.com/us/album/sleeping-with-ghosts/id453229265

Треклист:
1. Bulletproof Cupid
2. English Summer Rain
3. This Picture
4. Sleeping with Ghosts
5. The Bitter End
6. Something Rotten
7. Plasticine
8. Special Needs
9. I'll Be Yours
10. Second Sight
11. Protect Me from What I Want
12. Centrefolds
Продолжительность: 01:13:42
Источник: http://itunes.apple.com/gb/album/without-you-im-nothing/id453218888

Треклист:
1. Pure Morning
2. Teenage Angst
3. Brick S**thouse
4. You Don't Care About Us
5. Ask for Answers
6. Without You I'm Nothing
7. Allergic (To Thoughts of Mother Earth)
8. The Crawl
9. Every You Every Me
10. My Sweet Prince
11. Summer's Gone
12. Burger Queen
13. Evil Dildo (Hidden Track)
* Studio Albums / Студийные альбомы
Продолжительность: 00:13:27
Источник: http://itunes.apple.com/au/album/ashtray-heart-ep/id331536446

Треклист:
1. Ashtray Heart
2. F**k U
3. For What It's Worth (Losers Maximal Techmix)
Продолжительность: 00:19:34
Источник: http://itunes.apple.com/au/album/bright-lights-ep/id352736969

Треклист:
1. Bright Lights (Single Version)
2. Bright Lights
3. The Never-Ending Why (Acoustic Version) [Live]
4. Bright Lights (Randomer Remix Dub)
5. Bright Lights (Video)
Параметры видео

Качество: WEB-DL
Продолжительность: 00:03:36
Формат: MPEG-4 (контейнер m4v)
Видео: H.264, 640 x 272 px (16:9), 25.000 fps, ~1703 kbps, без анаморфа
Аудио: Английский (AAC Stereo, 256 Кбит/сек, 44,1 КГц)
Общее
Полное имя : C:\Users\Ромашка\Desktop\База музыки с блога\Placebo\Placebo - Bright Lights - EP\05 Bright Lights.m4v
Формат : MPEG-4
Идентификатор кодека : M4V
Размер файла : 46,1 Мбайт
Продолжительность : 3 м. 36 с.
Общий поток : 1789 Кбит/сек
Название фильма : Bright Lights
Альбом : Bright Lights - EP
Альбом/Исполнитель : Placebo
Трек/Положение : 5
Трек/Всего : 0
Исполнитель : Placebo
Жанр : Rock
Дата записи : UTC 2010-02-07 08:00:00
Дата кодирования : UTC 2010-01-27 12:03:48
Дата пометки : UTC 2010-01-27 12:08:50
Библиотека кодирования : Apple QuickTime
Обложка : Yes
apID : <a href="mailto:[email protected]" class="postLink">[email protected]</a>
cnID : 352737088
rtng : 0
atID : 23170329
plID : 352736969
geID : 1621
sfID : 143460
stik : 6
purd : 2012-04-09 13:01:29

Видео
Идентификатор : 1
Формат : AVC
Формат/Информация : Advanced Video Codec
Профиль формата : <a href="mailto:[email protected]" class="postLink">[email protected]</a>
Параметр CABAC формата : Нет
Параметр ReFrames формата : 1 кадр
Идентификатор кодека : avc1
Идентификатор кодека/Информация : Advanced Video Coding
Продолжительность : 3 м. 36 с.
Битрейт : 1495 Кбит/сек
Ширина : 640 пикселей
Высота : 272 пикселя
Соотношение сторон : 2,35:1
Режим частоты кадров : Постоянный
Частота кадров : 25,000 кадров/сек
Цветовое пространство : YUV
Субдискретизация насыщенности : 4:2:0
Битовая глубина : 8 бит
Тип развёртки : Прогрессивная
Бит/(Пиксели*Кадры) : 0.343
Размер потока : 38,5 Мбайт (84%)
Язык : English
Дата кодирования : UTC 2010-01-27 12:08:46
Дата пометки : UTC 2010-01-27 12:08:50
Основные цвета : BT.601-6 525, BT.1358 525, BT.1700 NTSC, SMPTE 170M
Характеристики трансфера : BT.709-5, BT.1361
Коэффициенты матрицы : BT.601-6 525, BT.1358 525, BT.1700 NTSC, SMPTE 170M

Аудио
Идентификатор : 2
Формат : AAC
Формат/Информация : Advanced Audio Codec
Профиль формата : LC
Идентификатор кодека : 40
Продолжительность : 3 м. 36 с.
Продолжительность оригинала : 3 м. 36 с.
Вид битрейта : Постоянный
Битрейт : 256 Кбит/сек
Каналы : 2 канала
Расположение каналов : Front: L R
Частота : 44,1 КГц
Метод сжатия : С потерями
Размер потока : 6,44 Мбайт (14%)
Размер потока оригинала : 6,44 Мбайт (14%)
Язык : English
Дата кодирования : UTC 2010-01-27 12:08:46
Дата пометки : UTC 2010-01-27 12:08:50

Меню
Идентификатор : 3
Язык : English
Дата кодирования : UTC 2010-01-27 12:08:50
Дата пометки : UTC 2010-01-27 12:08:50
Продолжительность: 00:13:50
Источник: данный контент был доступен временно

Треклист:
1. Because I Want You
2. Meds
3. Song to Say Goodbye
4. Jackie
Продолжительность: 00:11:39
Источник: http://itunes.apple.com/gb/album/for-what-its-worth-ep/id314928608

Треклист:
1. For What It's Worth
2. Wouldn't It Be Good
3. For What It's Worth (Demo)
4. For What It's Worth (Video)
Параметры видео

Качество: WEB-DL
Продолжительность: 00:02:53
Формат: MPEG-4 (контейнер m4v)
Видео: H.264, 640 x 360 px (16:9), 25.000 fps, ~1733 kbps, без анаморфа
Аудио: Английский (AAC Stereo, 256 Кбит/сек, 44,1 КГц)
Общее
Полное имя : C:\Users\Ромашка\Desktop\База музыки с блога\Placebo\Placebo - For What It's Worth - EP\04 For What It's Worth.m4v
Формат : MPEG-4
Идентификатор кодека : M4V
Размер файла : 37,6 Мбайт
Продолжительность : 2 м. 52 с.
Общий поток : 1830 Кбит/сек
Название фильма : For What It's Worth
Альбом : For What It's Worth - EP
Альбом/Исполнитель : Placebo
Трек/Положение : 4
Трек/Всего : 0
Исполнитель : Placebo
Жанр : Rock
Дата записи : UTC 2009-05-31 07:00:00
Дата кодирования : UTC 2009-05-01 09:58:41
Дата пометки : UTC 2009-05-01 10:03:25
Библиотека кодирования : Apple QuickTime
Обложка : Yes
apID : <a href="mailto:[email protected]" class="postLink">[email protected]</a>
cnID : 314928615
rtng : 0
atID : 649817
plID : 314928608
geID : 1621
sfID : 143444
stik : 6
purd : 2012-04-12 14:33:33
flvr : 6:640x480LC-256

Видео
Идентификатор : 1
Формат : AVC
Формат/Информация : Advanced Video Codec
Профиль формата : <a href="mailto:[email protected]" class="postLink">[email protected]</a>
Параметр CABAC формата : Нет
Параметр ReFrames формата : 1 кадр
Идентификатор кодека : avc1
Идентификатор кодека/Информация : Advanced Video Coding
Продолжительность : 2 м. 52 с.
Битрейт : 1528 Кбит/сек
Ширина : 640 пикселей
Высота : 360 пикселей
Соотношение сторон : 16:9
Режим частоты кадров : Постоянный
Частота кадров : 25,000 кадров/сек
Цветовое пространство : YUV
Субдискретизация насыщенности : 4:2:0
Битовая глубина : 8 бит
Тип развёртки : Прогрессивная
Бит/(Пиксели*Кадры) : 0.265
Размер потока : 31,4 Мбайт (83%)
Язык : English
Дата кодирования : UTC 2009-05-01 10:03:22
Дата пометки : UTC 2009-05-01 10:03:25
Основные цвета : BT.601-6 525, BT.1358 525, BT.1700 NTSC, SMPTE 170M
Характеристики трансфера : BT.709-5, BT.1361
Коэффициенты матрицы : BT.601-6 525, BT.1358 525, BT.1700 NTSC, SMPTE 170M

Аудио
Идентификатор : 2
Формат : AAC
Формат/Информация : Advanced Audio Codec
Профиль формата : LC
Идентификатор кодека : 40
Продолжительность : 2 м. 52 с.
Продолжительность оригинала : 2 м. 52 с.
Вид битрейта : Постоянный
Битрейт : 256 Кбит/сек
Каналы : 2 канала
Расположение каналов : Front: L R
Частота : 44,1 КГц
Метод сжатия : С потерями
Размер потока : 5,08 Мбайт (14%)
Размер потока оригинала : 5,08 Мбайт (14%)
Язык : English
Дата кодирования : UTC 2009-05-01 10:03:22
Дата пометки : UTC 2009-05-01 10:03:25

Меню
Идентификатор : 3
Язык : English
Дата кодирования : UTC 2009-05-01 10:03:25
Дата пометки : UTC 2009-05-01 10:03:25
Продолжительность: 00:11:34
Источник: данный контент был доступен временно

Треклист:
1. Taste In Men (Radio Edit)
2. Theme from Funky Reverend
3. Taste In Men (Alpinestars Kamikaze Skimix)
Продолжительность: 00:13:46
Источник: http://itunes.apple.com/gb/album/the-never-ending-why-ep/id328500691

Треклист:
1. The Never-Ending Why
2. Hardly Wait
3. For What It's Worth (Mistabishi Remix)
4. The Never-Ending Why (Video)
Параметры видео

Качество: WEB-DL
Продолжительность: 00:02:53
Формат: MPEG-4 (контейнер m4v)
Видео: H.264, 640 x 360 px (16:9), 25.000 fps, ~1725 kbps, без анаморфа
Аудио: Английский (AAC Stereo, 256 Кбит/сек, 44,1 КГц)
Общее
Полное имя : C:\Users\Ромашка\Desktop\База музыки с блога\Placebo\Placebo - The Never-Ending Why - EP\04 The Never-Ending Why.m4v
Формат : MPEG-4
Идентификатор кодека : M4V
Размер файла : 43,9 Мбайт
Продолжительность : 3 м. 23 с.
Общий поток : 1814 Кбит/сек
Название фильма : The Never-Ending Why
Альбом : The Never-Ending Why - EP
Альбом/Исполнитель : Placebo
Трек/Положение : 4
Трек/Всего : 0
Исполнитель : Placebo
Жанр : Rock
Дата записи : UTC 2009-09-13 07:00:00
Дата кодирования : UTC 2009-08-22 06:24:55
Дата пометки : UTC 2009-08-22 06:30:56
Библиотека кодирования : Apple QuickTime
Обложка : Yes
apID : <a href="mailto:[email protected]" class="postLink">[email protected]</a>
cnID : 328500816
rtng : 0
atID : 649817
plID : 328500691
geID : 1621
sfID : 143444
stik : 6
purd : 2012-04-12 14:35:44
sonm : Never-Ending Why
flvr : 6:640x480LC-256

Видео
Идентификатор : 1
Формат : AVC
Формат/Информация : Advanced Video Codec
Профиль формата : <a href="mailto:[email protected]" class="postLink">[email protected]</a>
Параметр CABAC формата : Нет
Параметр ReFrames формата : 1 кадр
Идентификатор кодека : avc1
Идентификатор кодека/Информация : Advanced Video Coding
Продолжительность : 3 м. 23 с.
Битрейт : 1516 Кбит/сек
Ширина : 640 пикселей
Высота : 360 пикселей
Соотношение сторон : 16:9
Режим частоты кадров : Постоянный
Частота кадров : 25,000 кадров/сек
Цветовое пространство : YUV
Субдискретизация насыщенности : 4:2:0
Битовая глубина : 8 бит
Тип развёртки : Прогрессивная
Бит/(Пиксели*Кадры) : 0.263
Размер потока : 36,7 Мбайт (84%)
Язык : English
Дата кодирования : UTC 2009-08-22 06:30:52
Дата пометки : UTC 2009-08-22 06:30:56
Основные цвета : BT.601-6 525, BT.1358 525, BT.1700 NTSC, SMPTE 170M
Характеристики трансфера : BT.709-5, BT.1361
Коэффициенты матрицы : BT.601-6 525, BT.1358 525, BT.1700 NTSC, SMPTE 170M

Аудио
Идентификатор : 2
Формат : AAC
Формат/Информация : Advanced Audio Codec
Профиль формата : LC
Идентификатор кодека : 40
Продолжительность : 3 м. 23 с.
Продолжительность оригинала : 3 м. 23 с.
Вид битрейта : Постоянный
Битрейт : 256 Кбит/сек
Каналы : 2 канала
Расположение каналов : Front: L R
Частота : 44,1 КГц
Метод сжатия : С потерями
Размер потока : 6,09 Мбайт (14%)
Размер потока оригинала : 6,09 Мбайт (14%)
Язык : English
Дата кодирования : UTC 2009-08-22 06:30:52
Дата пометки : UTC 2009-08-22 06:30:56

Меню
Идентификатор : 3
Язык : English
Дата кодирования : UTC 2009-08-22 06:30:56
Дата пометки : UTC 2009-08-22 06:30:56
Продолжительность: 00:15:09
Источник: http://itunes.apple.com/gb/album/the-never-ending-why-ep/id328191723

Треклист:
1. The Never-Ending Why
2. The Never-Ending Why (Live at the 02 Shepherd Bush Empire)
3. Happy You're Gone (Live at the 02 Shepherd Bush Empire)
4. Speak In Tongues (Live at the 02 Shepherd Bush Empire)
Продолжительность: 00:03:36
Источник: данный сингл был доступен временно

Треклист:
1. Bruise Pristine (Remastered 2004)
Продолжительность: 00:08:39
Источник: http://itunes.apple.com/gb/album/trigger-happy-hands-single/id458305785

Треклист:
1. Trigger Happy Hands
2. Trigger Happy Hands (Buffalo Daughter Remix)
Продолжительность: 00:02:53
Источник: http://itunes.apple.com/gb/music-video/for-what-its-worth/id314928615
Качество: WEB-DL
Продолжительность: 00:02:53
Формат: MPEG-4 (контейнер m4v)
Видео: H.264, 640 x 352 px (16:9), 25.000 fps, ~1703 kbps, без анаморфа
Аудио: Английский (AAC Stereo, 256 Кбит/сек, 44,1 КГц)
Общее
Полное имя : C:\Users\Ромашка\Desktop\База музыки с блога\Placebo\Placebo - For What It's Worth\For_What_Its_Worth.m4v
Формат : MPEG-4
Идентификатор кодека : M4V
Размер файла : 37,2 Мбайт
Продолжительность : 2 м. 53 с.
Общий поток : 1799 Кбит/сек
Название фильма : For What It's Worth
Исполнитель : Placebo
Жанр : Alternative
Дата записи : UTC 2009-12-08 08:00:00
Дата кодирования : UTC 2009-12-08 19:27:34
Дата пометки : UTC 2009-12-08 19:30:51
Библиотека кодирования : Apple QuickTime
Правообладатель : ℗ (C) 2009 Vagrant Records (US)
Обложка : Yes
apID : <a href="mailto:[email protected]" class="postLink">[email protected]</a>
cnID : 345363723
rtng : 0
atID : 20826
geID : 1620
sfID : 143441
akID : 0
stik : 6
purd : 2010-06-15 23:07:02
xid : Universal:isrc:USVR90955201

Видео
Идентификатор : 1
Формат : AVC
Формат/Информация : Advanced Video Codec
Профиль формата : <a href="mailto:[email protected]" class="postLink">[email protected]</a>
Параметр CABAC формата : Нет
Параметр ReFrames формата : 1 кадр
Идентификатор кодека : avc1
Идентификатор кодека/Информация : Advanced Video Coding
Продолжительность : 2 м. 53 с.
Битрейт : 1495 Кбит/сек
Ширина : 640 пикселей
Высота : 352 пикселя
Соотношение сторон : 16:9
Режим частоты кадров : Постоянный
Частота кадров : 23,976 кадра/сек
Цветовое пространство : YUV
Субдискретизация насыщенности : 4:2:0
Битовая глубина : 8 бит
Тип развёртки : Прогрессивная
Бит/(Пиксели*Кадры) : 0.277
Размер потока : 30,9 Мбайт (83%)
Язык : English
Дата кодирования : UTC 2009-12-08 19:30:47
Дата пометки : UTC 2009-12-08 19:30:51
Основные цвета : BT.601-6 525, BT.1358 525, BT.1700 NTSC, SMPTE 170M
Характеристики трансфера : BT.709-5, BT.1361
Коэффициенты матрицы : BT.601-6 525, BT.1358 525, BT.1700 NTSC, SMPTE 170M

Аудио
Идентификатор : 2
Формат : AAC
Формат/Информация : Advanced Audio Codec
Профиль формата : LC
Идентификатор кодека : 40
Продолжительность : 2 м. 53 с.
Продолжительность оригинала : 2 м. 53 с.
Вид битрейта : Постоянный
Битрейт : 256 Кбит/сек
Каналы : 2 канала
Расположение каналов : Front: L R
Частота : 44,1 КГц
Метод сжатия : С потерями
Размер потока : 5,16 Мбайт (14%)
Размер потока оригинала : 5,16 Мбайт (14%)
Язык : English
Дата кодирования : UTC 2009-12-08 19:30:47
Дата пометки : UTC 2009-12-08 19:30:51

Меню
Идентификатор : 3
Язык : English
Дата кодирования : UTC 2009-12-08 19:30:51
Дата пометки : UTC 2009-12-08 19:30:51
Продолжительность: 00:03:59
Источник: данный видеоклип был доступен временно
Качество: WEB-DL
Продолжительность: 00:03:59
Формат: MPEG-4 (контейнер m4v)
Видео: H.264, 640 x 336 px (16:9), 25.000 fps, ~1676 kbps, без анаморфа
Аудио: Английский (AAC Stereo, 256 Кбит/сек, 44,1 КГц)
Общее
Полное имя : C:\Users\Ромашка\Desktop\База музыки с блога\Placebo\Placebo - Taste In Men\Taste_In_Men.m4v
Формат : MPEG-4
Идентификатор кодека : M4V
Размер файла : 50,1 Мбайт
Продолжительность : 3 м. 59 с.
Общий поток : 1757 Кбит/сек
Название фильма : Taste In Men
Исполнитель : Placebo
Жанр : Rock
Дата записи : UTC 2005-04-01 08:00:00
Дата кодирования : UTC 2009-05-02 14:10:32
Дата пометки : UTC 2009-05-02 14:16:59
Библиотека кодирования : Apple QuickTime
Обложка : Yes
apID : <a href="mailto:[email protected]" class="postLink">[email protected]</a>
cnID : 82245509
rtng : 0
atID : 649817
geID : 1621
sfID : 143441
akID : 0
stik : 6
purd : 2010-06-15 10:18:03

Видео
Идентификатор : 1
Формат : AVC
Формат/Информация : Advanced Video Codec
Профиль формата : <a href="mailto:[email protected]" class="postLink">[email protected]</a>
Параметр CABAC формата : Нет
Параметр ReFrames формата : 1 кадр
Идентификатор кодека : avc1
Идентификатор кодека/Информация : Advanced Video Coding
Продолжительность : 3 м. 59 с.
Битрейт : 1464 Кбит/сек
Ширина : 640 пикселей
Высота : 336 пикселей
Соотношение сторон : 1,905
Режим частоты кадров : Постоянный
Частота кадров : 25,000 кадров/сек
Цветовое пространство : YUV
Субдискретизация насыщенности : 4:2:0
Битовая глубина : 8 бит
Тип развёртки : Прогрессивная
Бит/(Пиксели*Кадры) : 0.272
Размер потока : 41,7 Мбайт (83%)
Язык : English
Дата кодирования : UTC 2009-05-02 14:16:54
Дата пометки : UTC 2009-05-02 14:16:59
Основные цвета : BT.601-6 525, BT.1358 525, BT.1700 NTSC, SMPTE 170M
Характеристики трансфера : BT.709-5, BT.1361
Коэффициенты матрицы : BT.601-6 525, BT.1358 525, BT.1700 NTSC, SMPTE 170M

Аудио
Идентификатор : 2
Формат : AAC
Формат/Информация : Advanced Audio Codec
Профиль формата : LC
Идентификатор кодека : 40
Продолжительность : 3 м. 59 с.
Продолжительность оригинала : 3 м. 59 с.
Вид битрейта : Постоянный
Битрейт : 256 Кбит/сек
Каналы : 2 канала
Расположение каналов : Front: L R
Частота : 44,1 КГц
Метод сжатия : С потерями
Размер потока : 7,20 Мбайт (14%)
Размер потока оригинала : 7,20 Мбайт (14%)
Язык : English
Дата кодирования : UTC 2009-05-02 14:16:54
Дата пометки : UTC 2009-05-02 14:16:59

Меню
Идентификатор : 3
Язык : English
Дата кодирования : UTC 2009-05-02 14:16:59
Дата пометки : UTC 2009-05-02 14:16:59
Продолжительность: 00:03:57
Источник: данный видеоклип был доступен временно
Качество: WEB-DL
Продолжительность: 00:03:57
Формат: MPEG-4 (контейнер m4v)
Видео: H.264, 640 x 480 px (4:3), 25.000 fps, ~1653 kbps, без анаморфа
Аудио: Английский (AAC Stereo, 256 Кбит/сек, 44,1 КГц)
Общее
Полное имя : C:\Users\Ромашка\Desktop\База музыки с блога\Placebo\Placebo - Pure Morning\Pure_Morning.m4v
Формат : MPEG-4
Идентификатор кодека : M4V
Размер файла : 48,9 Мбайт
Продолжительность : 3 м. 56 с.
Общий поток : 1734 Кбит/сек
Название фильма : Pure Morning
Исполнитель : Placebo
Жанр : Rock
Дата записи : UTC 2005-04-01 08:00:00
Дата кодирования : UTC 2009-05-02 10:32:33
Дата пометки : UTC 2009-05-02 10:44:23
Библиотека кодирования : Apple QuickTime
Обложка : Yes
apID : <a href="mailto:[email protected]" class="postLink">[email protected]</a>
cnID : 82245491
rtng : 0
atID : 649817
geID : 1621
sfID : 143441
akID : 0
stik : 6
purd : 2010-06-15 10:17:37

Видео
Идентификатор : 1
Формат : AVC
Формат/Информация : Advanced Video Codec
Профиль формата : <a href="mailto:[email protected]" class="postLink">[email protected]</a>
Параметр CABAC формата : Нет
Параметр ReFrames формата : 1 кадр
Идентификатор кодека : avc1
Идентификатор кодека/Информация : Advanced Video Coding
Продолжительность : 3 м. 56 с.
Битрейт : 1443 Кбит/сек
Ширина : 640 пикселей
Высота : 480 пикселей
Соотношение сторон : 4:3
Режим частоты кадров : Постоянный
Частота кадров : 25,000 кадров/сек
Цветовое пространство : YUV
Субдискретизация насыщенности : 4:2:0
Битовая глубина : 8 бит
Тип развёртки : Прогрессивная
Бит/(Пиксели*Кадры) : 0.188
Размер потока : 40,7 Мбайт (83%)
Язык : English
Дата кодирования : UTC 2009-05-02 10:44:18
Дата пометки : UTC 2009-05-02 10:44:23
Основные цвета : BT.601-6 525, BT.1358 525, BT.1700 NTSC, SMPTE 170M
Характеристики трансфера : BT.709-5, BT.1361
Коэффициенты матрицы : BT.601-6 525, BT.1358 525, BT.1700 NTSC, SMPTE 170M



Placebo (/pləˈsiboʊ/ пласи́бо, в пер. с англ. Плацебо) — британская группа, исполняющая альтернативный рок. Сформирована в 1994 году двумя музыкантами Брайаном Молко и Стефаном Олсдалом. В 1996 году барабанщика Роберта Шульцберга заменил давний знакомый Брайана — Стив Хьюитт.
1 октября 2007 года Стив Хьюитт покинул группу. Летом 2008 года Placebo нашли нового барабанщика — Стива Форреста. В июне 2009 года вышел 6-й студийный альбом группы — Battle for the Sun.
Брайан Молко (англ. Brian Molko) — вокал, гитара, клавишные
Стефан Олсдал (англ. Stefan Olsdal) — гитара, бас-гитара, клавишные, бэк-вокал
Стивен Форрест (англ. Steve Forrest) — ударные

Бывшие участники
Роберт Шульцберг (англ. Robert Schultzberg; 1994—1996) — ударные
Стив Хьюитт (англ. Steve Hewitt; 1996—2007) — ударные


Трекер:  [ 07-Май-2012 18:04 ]

  

Скачать .torrent

Размер .torrent файла 36 KB


Размер: 1.63 GB
Хэш (hash) релиза: 824927d345dd51f2316c4eafab53e25c22bcba76

Еще никто не оставлял запись к записи скачать торрент Placebo - Дискография iTunes Discography . Будь первым!

!Обратная связь