Running Man Episode 405 | HD Just Looking (1999) | Betsy Butoryak

Скачать через торрент [VIDEO] Люди в черном 2 Men in Black IIpic бесплатно русская версия torrent активатор

Статистика раздачи
Размер:  701 MB   |    Зарегистрирован:  6 лет 2 месяца   |    .torrent скачан:  56 раз   |   
Раздают:  1  
   
загрузка...
 
Автор Сообщение

Galfimbul

avatar Galfimbul


Люди в черном 2 / Men in Black IIpic
Год выпуска: 2002
Страна: США
Жанр: фантастика, боевик, комедия
Продолжительность: 01:28:08
Перевод: Профессиональный (полное дублирование)
Русские субтитры: нет
Режиссер: Бэрри Зонненфелд / Barry Sonnenfeld

В ролях: Томми Ли Джонс, Уилл Смит, Лара Флинн Бойл, Рип Торн, Розарио Доусон, Джонни Ноксвилл, Патрик Уорбертон, Майкл Джексон, Тони Шэлхоуб, Джек Келер, Дэвид Кросс
Описание: «Люди в черном 2» продолжает рассказ о приключениях двух элитных полицейских — агента Кея и агента Джея среди инопланетян. Со времени их предыдущих похождений прошло четыре года.

Все эти годы агент Кей вел размеренный образ жизни, в то время как агент Джей продолжал бесстрашно трудиться в рядах самой секретной организации в мире. Расследуя самое обычное дело, агент Джей натыкается на следы дьявольски изощренного заговора, задуманного Серлиной, злобным монстром, обитающим на Земле в образе сексуальнейшей модели.

Когда события принимают угрожающий оборот, агенту Джею приходится обратиться за помощью к своему бывшему напарнику, который мирно трудится в Почтовом Департаменте. За короткое время агенту Джею надо убедить агента Кея помочь ему — ведь только он может помочь спасти Землю от порабощения и уничтожения.
Исходник (ссылка): Men.in.Black.II.2002.720p.BluRay.x264.DTS-WiKi
Качество: HDRip
Формат: MP4
Видео кодек: H.264
Аудио кодек: AAC
Видео: 640x346, 23.976 fps, 982 Kbps
Аудио: 48000 Hz, 128 Kbps, 2 ch
  
Format : MPEG-4Format profile : Base MediaCodec ID : isomFile size : 701 MiBDuration : 1h 28mnOverall bit rate mode : VariableOverall bit rate : 1 112 KbpsEncoded date : UTC 2012-04-21 20:33:43Tagged date : UTC 2012-04-21 20:33:43

VideoID : 1Format : AVCFormat/Info : Advanced Video CodecFormat profile : <a href="mailto:[email protected]" class="postLink">[email protected]</a> settings, CABAC : NoFormat settings, ReFrames : 3 framesCodec ID : avc1Codec ID/Info : Advanced Video CodingDuration : 1h 28mnBit rate : 982 KbpsMaximum bit rate : 5 233 KbpsWidth : 640 pixelsHeight : 346 pixelsDisplay aspect ratio : 1.850Frame rate mode : ConstantFrame rate : 23.976 fpsColor space : YUVChroma subsampling : 4:2:0Bit depth : 8 bitsScan type : ProgressiveBits/(Pixel*Frame) : 0.185Stream size : 618 MiB (88%)Writing library : x264 core 122 r2184 5c85e0aEncoding settings : cabac=0 / ref=3 / deblock=1:0:0 / analyse=0x1:0x111 / me=umh / subme=9 / psy=1 / psy_rd=1.00:0.00 / mixed_ref=1 / me_range=24 / chroma_me=1 / trellis=0 / 8x8dct=0 / cqm=0 / deadzone=21,11 / fast_pskip=0 / chroma_qp_offset=-2 / threads=6 / sliced_threads=0 / nr=0 / decimate=1 / interlaced=0 / bluray_compat=0 / constrained_intra=0 / bframes=0 / weightp=0 / keyint=240 / keyint_min=23 / scenecut=40 / intra_refresh=0 / rc=2pass / mbtree=0 / bitrate=982 / ratetol=1.0 / qcomp=0.70 / qpmin=0 / qpmax=69 / qpstep=4 / cplxblur=20.0 / qblur=0.5 / ip_ratio=1.40 / aq=2:0.80 / zones=116072,126789,b=0.35Encoded date : UTC 2012-04-21 18:30:06Tagged date : UTC 2012-04-21 20:33:59

AudioID : 2Format : AACFormat/Info : Advanced Audio CodecFormat profile : LCCodec ID : 40Duration : 1h 28mnBit rate mode : VariableBit rate : 128 KbpsMaximum bit rate : 152 KbpsChannel(s) : 2 channelsChannel positions : Front: L RSampling rate : 48.0 KHzCompression mode : LossyStream size : 80.7 MiB (12%)Language : RussianEncoded date : UTC 2012-04-21 20:33:57Tagged date : UTC 2012-04-21 20:33:59

@@@


Трекер:  [ 07-Май-2012 18:04 ]

  

Скачать .torrent

Размер .torrent файла 14 KB


Размер: 701 MB
Хэш (hash) релиза: ae62879f3c82271b444620de42fcabc4a3eebe98

Еще никто не оставлял запись к записи скачать торрент [VIDEO] Люди в черном 2 Men in Black IIpic . Будь первым!

!Обратная связь