Meurs un autre jour | Keenan Henson | Tokyo Magnitude 8.0

Скачать через торрент музыку Bob Marley & The Wailers - Catch A Fire Box Set бесплатно без регистрации torrent

Статистика раздачи
Размер:  3.53 GB   |    Зарегистрирован:  6 лет 2 месяца   |    .torrent скачан:  84 раза   |   
Раздают:  1  
   
загрузка...
 
Автор Сообщение

_N_

avatar _N_


Bob Marley & The Wailers / Catch A Fire box set


Жанр: Reggae
Страна-производитель диска: Japan
Год издания диска: 2006
Издатель (лейбл): Disk Union
Номер по каталогу: DU-SP110-0412P
Страна: Jamaica
Аудиокодек: FLAC (*.flac)
Тип рипа: tracks+.cue
Битрейт аудио: lossless
Источник (релизер): всемирная паутина
Наличие сканов в содержимом раздачи: да
Треклист:

01 - Concrete Jungle - 4:15
02 - Slave Driver - 2:55
03 - 400 Years - 2:47
04 - Stop That Train - 3:56
05 - Baby We've Got A Date (Rock It Baby) - 3:59
06 - Stir It Up - 5:34
07 - Kinky Reggae - 3:39
08 - No More Trouble - 4:00
09 - Midnight Ravers - 5:11
10 - High Tide Or Low Tide (bonus track) - 4:45
11 - All Day All Night (bonus track) - 3:29
  
Exact Audio Copy V0.99 prebeta 5 from 4. May 2009

EAC extraction logfile from 16. May 2011, 10:35

Bob Marley & The Wailers / Catch A Fire

Used drive : PLEXTOR CD-R PREMIUM2 Adapter: 4 ID: 1

Read mode : SecureUtilize accurate stream : YesDefeat audio cache : YesMake use of C2 pointers : No

Read offset correction : 30Overread into Lead-In and Lead-Out : YesFill up missing offset samples with silence : YesDelete leading and trailing silent blocks : NoNull samples used in CRC calculations : YesUsed interface : Native Win32 interface for Win NT & 2000Gap handling : Appended to previous track

Used output format : User Defined EncoderSelected bitrate : 768 kBit/sQuality : HighAdd ID3 tag : NoCommand line compressor : C:\Exact Audio Copy\Flac\flac.exeAdditional command line options : -8 -V -T "ARTIST=%a" -T "TITLE=%t" -T "ALBUM=%g" -T "DATE=%y" -T "TRACKNUMBER=%n" -T "TOTALTRACKS=%x" -T "GENRE=%m" -T "ALBUMARTIST=%v" -T "ALBUM ARTIST=%v"-T "COMMENT=EAC Secure Mode, Test & Copy, AccurateRip, FLAC -8" %s

TOC of the extracted CD

Track | Start | Length | Start sector | End sector --------------------------------------------------------- 1 | 0:00.00 | 4:14.62 | 0 | 19111 2 | 4:14.62 | 2:54.50 | 19112 | 32211 3 | 7:09.37 | 2:46.45 | 32212 | 44706 4 | 9:56.07 | 3:56.35 | 44707 | 62441 5 | 13:52.42 | 3:58.60 | 62442 | 80351 6 | 17:51.27 | 5:34.35 | 80352 | 105436 7 | 23:25.62 | 3:39.20 | 105437 | 121881 8 | 27:05.07 | 4:00.05 | 121882 | 139886 9 | 31:05.12 | 5:11.05 | 139887 | 163216 10 | 36:16.17 | 4:44.55 | 163217 | 184571 11 | 41:00.72 | 3:29.18 | 184572 | 200264

Track 1

Filename E:\Flac\01 - Concrete Jungle.wav

Pre-gap length 0:00:02.00

Peak level 99.8 % Track quality 100.0 % Test CRC 5DAA8D0A Copy CRC 5DAA8D0A Track not present in AccurateRip database Copy OK

Track 2

Filename E:\Flac\02 - Slave Driver.wav

Pre-gap length 0:00:01.56

Peak level 99.8 % Track quality 99.9 % Test CRC E8AAE418 Copy CRC E8AAE418 Track not present in AccurateRip database Copy OK

Track 3

Filename E:\Flac\03 - 400 Years.wav

Pre-gap length 0:00:01.02

Peak level 99.8 % Track quality 100.0 % Test CRC 342733BD Copy CRC 342733BD Track not present in AccurateRip database Copy OK

Track 4

Filename E:\Flac\04 - Stop That Train.wav

Pre-gap length 0:00:01.16

Peak level 99.9 % Track quality 100.0 % Test CRC 5ADB3266 Copy CRC 5ADB3266 Track not present in AccurateRip database Copy OK

Track 5

Filename E:\Flac\05 - Baby We've Got A Date (Rock It Baby).wav

Pre-gap length 0:00:01.82

Peak level 99.9 % Track quality 100.0 % Test CRC 5D6C7F7A Copy CRC 5D6C7F7A Track not present in AccurateRip database Copy OK

Track 6

Filename E:\Flac\06 - Stir It Up.wav

Pre-gap length 0:00:03.16

Peak level 99.8 % Track quality 100.0 % Test CRC 5239C495 Copy CRC 5239C495 Track not present in AccurateRip database Copy OK

Track 7

Filename E:\Flac\07 - Kinky Reggae.wav

Pre-gap length 0:00:01.29

Peak level 99.8 % Track quality 100.0 % Test CRC 1DA4F244 Copy CRC 1DA4F244 Track not present in AccurateRip database Copy OK

Track 8

Filename E:\Flac\08 - No More Trouble.wav

Pre-gap length 0:00:01.62

Peak level 99.9 % Track quality 99.9 % Test CRC 59A64BE4 Copy CRC 59A64BE4 Track not present in AccurateRip database Copy OK

Track 9

Filename E:\Flac\09 - Midnight Ravers.wav

Pre-gap length 0:00:02.29

Peak level 99.8 % Track quality 100.0 % Test CRC 1FE14D50 Copy CRC 1FE14D50 Track not present in AccurateRip database Copy OK

Track 10

Filename E:\Flac\10 - High Tide Or Low Tide (Bonus Track).wav

Pre-gap length 0:00:02.82

Peak level 99.9 % Track quality 100.0 % Test CRC 3F246A18 Copy CRC 3F246A18 Track not present in AccurateRip database Copy OK

Track 11

Filename E:\Flac\11 - All Day All Night (Bonus Track).wav

Pre-gap length 0:00:02.82

Peak level 99.9 % Track quality 100.0 % Test CRC 18013C5F Copy CRC 18013C5F Track not present in AccurateRip database Copy OK

None of the tracks are present in the AccurateRip database

No errors occurred

End of status report
  
REM GENRE ReggaeREM DATE 1973REM DISCID 990A6E0BREM COMMENT "ExactAudioCopy v0.99pb5"PERFORMER "Bob Marley & The Wailers"TITLE "Catch A Fire"FILE "01 - Concrete Jungle.wav" WAVE TRACK 01 AUDIO TITLE "Concrete Jungle" PERFORMER "Bob Marley & The Wailers" INDEX 01 00:00:00 TRACK 02 AUDIO TITLE "Slave Driver" PERFORMER "Bob Marley & The Wailers" INDEX 00 04:13:20FILE "02 - Slave Driver.wav" WAVE INDEX 01 00:00:00 TRACK 03 AUDIO TITLE "400 Years" PERFORMER "Bob Marley & The Wailers" INDEX 00 02:53:48FILE "03 - 400 Years.wav" WAVE INDEX 01 00:00:00 TRACK 04 AUDIO TITLE "Stop That Train" PERFORMER "Bob Marley & The Wailers" INDEX 00 02:45:33FILE "04 - Stop That Train.wav" WAVE INDEX 01 00:00:00 TRACK 05 AUDIO TITLE "Baby We've Got A Date (Rock It Baby)" PERFORMER "Bob Marley & The Wailers" INDEX 00 03:54:48FILE "05 - Baby We've Got A Date (Rock It Baby).wav" WAVE INDEX 01 00:00:00 TRACK 06 AUDIO TITLE "Stir It Up" PERFORMER "Bob Marley & The Wailers" INDEX 00 03:55:48FILE "06 - Stir It Up.wav" WAVE INDEX 01 00:00:00 TRACK 07 AUDIO TITLE "Kinky Reggae" PERFORMER "Bob Marley & The Wailers" INDEX 00 05:33:13FILE "07 - Kinky Reggae.wav" WAVE INDEX 01 00:00:00 TRACK 08 AUDIO TITLE "No More Trouble" PERFORMER "Bob Marley & The Wailers" INDEX 00 03:37:48FILE "08 - No More Trouble.wav" WAVE INDEX 01 00:00:00 TRACK 09 AUDIO TITLE "Midnight Ravers" PERFORMER "Bob Marley & The Wailers" INDEX 00 03:57:58FILE "09 - Midnight Ravers.wav" WAVE INDEX 01 00:00:00 TRACK 10 AUDIO TITLE "High Tide Or Low Tide (bonus Track)" PERFORMER "Bob Marley & The Wailers" INDEX 00 05:08:18FILE "10 - High Tide Or Low Tide (bonus Track).wav" WAVE INDEX 01 00:00:00 TRACK 11 AUDIO TITLE "All Day All Night (bonus Track)" PERFORMER "Bob Marley & The Wailers" INDEX 00 04:41:68FILE "11 - All Day All Night (bonus Track).wav" WAVE INDEX 01 00:00:00
Треклист:

01 - Get Up, Stand Up - 3:20
02 - Hallelujah Time - 3:33
03 - I Shot The Sheriff - 4:41
04 - Burnin' And Lootin' - 4:18
05 - Put It On - 4:00
06 - Small Axe - 4:02
07 - Pass It On - 3:35
08 - Duppy Conqueror - 3:47
09 - One Foundation - 3:44
10 - Rasta Man Chant - 3:48
11 - Reincarnated Souls (bonus track) - 3:46
12 - No Sympathy (bonus track) - 3:12
13 - The Oppressed Song (bonus track) - 3:17
  
Exact Audio Copy V0.99 prebeta 5 from 4. May 2009

EAC extraction logfile from 17. May 2011, 13:35

Bob Marley & The Wailers / Burnin'

Used drive : PLEXTOR CD-R PREMIUM2 Adapter: 4 ID: 1

Read mode : SecureUtilize accurate stream : YesDefeat audio cache : YesMake use of C2 pointers : No

Read offset correction : 30Overread into Lead-In and Lead-Out : YesFill up missing offset samples with silence : YesDelete leading and trailing silent blocks : NoNull samples used in CRC calculations : YesUsed interface : Native Win32 interface for Win NT & 2000Gap handling : Appended to previous track

Used output format : User Defined EncoderSelected bitrate : 768 kBit/sQuality : HighAdd ID3 tag : NoCommand line compressor : C:\Exact Audio Copy\Flac\flac.exeAdditional command line options : -8 -V -T "ARTIST=%a" -T "TITLE=%t" -T "ALBUM=%g" -T "DATE=%y" -T "TRACKNUMBER=%n" -T "TOTALTRACKS=%x" -T "GENRE=%m" -T "ALBUMARTIST=%v" -T "ALBUM ARTIST=%v"-T "COMMENT=EAC Secure Mode, Test & Copy, AccurateRip, FLAC -8" %s

TOC of the extracted CD

Track | Start | Length | Start sector | End sector --------------------------------------------------------- 1 | 0:00.00 | 3:19.50 | 0 | 14974 2 | 3:19.50 | 3:33.20 | 14975 | 30969 3 | 6:52.70 | 4:41.00 | 30970 | 52044 4 | 11:33.70 | 4:18.10 | 52045 | 71404 5 | 15:52.05 | 4:00.35 | 71405 | 89439 6 | 19:52.40 | 4:02.10 | 89440 | 107599 7 | 23:54.50 | 3:35.05 | 107600 | 123729 8 | 27:29.55 | 3:47.30 | 123730 | 140784 9 | 31:17.10 | 3:43.45 | 140785 | 157554 10 | 35:00.55 | 3:48.05 | 157555 | 174659 11 | 38:48.60 | 3:45.55 | 174660 | 191589 12 | 42:34.40 | 3:11.70 | 191590 | 205984 13 | 45:46.35 | 3:16.60 | 205985 | 220744

Track 1

Filename E:\Flac\01 - Get Up, Stand Up.wav

Pre-gap length 0:00:02.00

Peak level 99.9 % Track quality 100.0 % Test CRC D760BEE4 Copy CRC D760BEE4 Cannot be verified as accurate (confidence 2) [41665B63], AccurateRip returned [F7DDE078] Copy OK

Track 2

Filename E:\Flac\02 - Hallelujah Time.wav

Pre-gap length 0:00:01.53

Peak level 97.7 % Track quality 100.0 % Test CRC 128D678E Copy CRC 128D678E Cannot be verified as accurate (confidence 2) [3259254B], AccurateRip returned [A9A77E16] Copy OK

Track 3

Filename E:\Flac\03 - I Shot The Sheriff.wav

Pre-gap length 0:00:03.93

Peak level 97.7 % Track quality 100.0 % Test CRC FD46046C Copy CRC FD46046C Cannot be verified as accurate (confidence 2) [870AD239], AccurateRip returned [C4BCB221] Copy OK

Track 4

Filename E:\Flac\04 - Burnin' And Lootin'.wav

Peak level 97.7 % Track quality 100.0 % Test CRC 108E3E49 Copy CRC 108E3E49 Cannot be verified as accurate (confidence 2) [6BDCD93D], AccurateRip returned [0F827F15] Copy OK

Track 5

Filename E:\Flac\05 - Put It On.wav

Pre-gap length 0:00:03.33

Peak level 97.7 % Track quality 100.0 % Test CRC 967DDF2D Copy CRC 967DDF2D Cannot be verified as accurate (confidence 2) [1B745F81], AccurateRip returned [D50C8F46] Copy OK

Track 6

Filename E:\Flac\06 - Small Axe.wav

Pre-gap length 0:00:01.66

Peak level 97.7 % Track quality 100.0 % Test CRC 89A75F91 Copy CRC 89A75F91 Cannot be verified as accurate (confidence 2) [204BC216], AccurateRip returned [1A7BA947] Copy OK

Track 7

Filename E:\Flac\07 - Pass It On.wav

Pre-gap length 0:00:01.46

Peak level 97.7 % Track quality 100.0 % Test CRC C0E97478 Copy CRC C0E97478 Cannot be verified as accurate (confidence 2) [7E12C8DB], AccurateRip returned [EF6009A0] Copy OK

Track 8

Filename E:\Flac\08 - Duppy Conqueror.wav

Peak level 97.7 % Track quality 100.0 % Test CRC 20041963 Copy CRC 20041963 Cannot be verified as accurate (confidence 2) [228A8923], AccurateRip returned [FCEF886A] Copy OK

Track 9

Filename E:\Flac\09 - One Foundation.wav

Pre-gap length 0:00:03.00

Peak level 97.7 % Track quality 100.0 % Test CRC 1AB9714F Copy CRC 1AB9714F Cannot be verified as accurate (confidence 2) [A27D0E65], AccurateRip returned [8421A01C] Copy OK

Track 10

Filename E:\Flac\10 - Rasta Man Chant.wav

Pre-gap length 0:00:01.73

Peak level 97.7 % Track quality 100.0 % Test CRC 4E973415 Copy CRC 4E973415 Cannot be verified as accurate (confidence 2) [CE4CDADD], AccurateRip returned [5FCBF5D5] Copy OK

Track 11

Filename E:\Flac\11 - Reincarnated Souls.wav

Pre-gap length 0:00:02.53

Peak level 99.9 % Track quality 100.0 % Test CRC AF14ADB8 Copy CRC AF14ADB8 Cannot be verified as accurate (confidence 2) [F91BF27F], AccurateRip returned [6636042E] Copy OK

Track 12

Filename E:\Flac\12 - No Sympathy (Bonus Track).wav

Pre-gap length 0:00:02.46

Peak level 99.8 % Track quality 99.9 % Test CRC BEE849D1 Copy CRC BEE849D1 Cannot be verified as accurate (confidence 2) [FA291451], AccurateRip returned [469B5F63] Copy OK

Track 13

Filename E:\Flac\13 - The Oppressed Song (Bonus Track).wav

Pre-gap length 0:00:03.00

Peak level 99.9 % Track quality 100.0 % Test CRC B73DBA6E Copy CRC B73DBA6E Cannot be verified as accurate (confidence 2) [F256395C], AccurateRip returned [B86FD708] Copy OK

No tracks could be verified as accurateYou may have a different pressing from the one(s) in the database

No errors occurred

End of status report
  
REM GENRE ReggaeREM DATE 1973REM DISCID AB0B7F0DREM COMMENT "ExactAudioCopy v0.99pb5"PERFORMER "Bob Marley & The Wailers"TITLE "Burnin'"FILE "01 - Get Up, Stand Up.wav" WAVE TRACK 01 AUDIO TITLE "Get Up, Stand Up" PERFORMER "Bob Marley & The Wailers" INDEX 01 00:00:00 TRACK 02 AUDIO TITLE "Hallelujah Time" PERFORMER "Bob Marley & The Wailers" INDEX 00 03:18:10FILE "02 - Hallelujah Time.wav" WAVE INDEX 01 00:00:00 TRACK 03 AUDIO TITLE "I Shot The Sheriff" PERFORMER "Bob Marley & The Wailers" INDEX 00 03:29:25FILE "03 - I Shot The Sheriff.wav" WAVE INDEX 01 00:00:00FILE "04 - Burnin' And Lootin'.wav" WAVE TRACK 04 AUDIO TITLE "Burnin' And Lootin'" PERFORMER "Bob Marley & The Wailers" INDEX 01 00:00:00 TRACK 05 AUDIO TITLE "Put It On" PERFORMER "Bob Marley & The Wailers" INDEX 00 04:14:60FILE "05 - Put It On.wav" WAVE INDEX 01 00:00:00 TRACK 06 AUDIO TITLE "Small Axe" PERFORMER "Bob Marley & The Wailers" INDEX 00 03:58:60FILE "06 - Small Axe.wav" WAVE INDEX 01 00:00:00 TRACK 07 AUDIO TITLE "Pass It On" PERFORMER "Bob Marley & The Wailers" INDEX 00 04:00:50FILE "07 - Pass It On.wav" WAVE INDEX 01 00:00:00FILE "08 - Duppy Conqueror.wav" WAVE TRACK 08 AUDIO TITLE "Duppy Conqueror" PERFORMER "Bob Marley & The Wailers" INDEX 01 00:00:00 TRACK 09 AUDIO TITLE "One Foundation" PERFORMER "Bob Marley & The Wailers" INDEX 00 03:44:30FILE "09 - One Foundation.wav" WAVE INDEX 01 00:00:00 TRACK 10 AUDIO TITLE "Rasta Man Chant" PERFORMER "Bob Marley & The Wailers" INDEX 00 03:41:65FILE "10 - Rasta Man Chant.wav" WAVE INDEX 01 00:00:00 TRACK 11 AUDIO TITLE "Reincarnated Souls (bonus track)" PERFORMER "Bob Marley & The Wailers" INDEX 00 03:45:40FILE "11 - Reincarnated Souls (bonus track).wav" WAVE INDEX 01 00:00:00 TRACK 12 AUDIO TITLE "No Sympathy (bonus track)" PERFORMER "Bob Marley & The Wailers" INDEX 00 03:43:20FILE "12 - No Sympathy (bonus track).wav" WAVE INDEX 01 00:00:00 TRACK 13 AUDIO TITLE "The Oppressed Song (bonus track)" PERFORMER "Bob Marley & The Wailers" INDEX 00 03:08:70FILE "13 - The Oppressed Song (bonus track).wav" WAVE INDEX 01 00:00:00
Треклист:

01 - Lively Up Yourself - 5:12
02 - No Woman, No Cry - 3:46
03 - Them Belly Full (But We Hungry) - 3:13
04 - Rebel Music (3 O'Clock Roadblock) - 6:46
05 - So Jah Seh - 4:28
06 - Natty Dread - 3:36
07 - Bend Down Low - 3:22
08 - Talkin' Blues - 4:04
09 - Revolution - 4:23
10 - Am-A-Do (bonus track) - 3:20
  
Exact Audio Copy V0.99 prebeta 5 from 4. May 2009

EAC extraction logfile from 17. May 2011, 23:09

Bob Marley & The Wailers / Natty Dread

Used drive : PLEXTOR CD-R PREMIUM2 Adapter: 4 ID: 1

Read mode : SecureUtilize accurate stream : YesDefeat audio cache : YesMake use of C2 pointers : No

Read offset correction : 30Overread into Lead-In and Lead-Out : YesFill up missing offset samples with silence : YesDelete leading and trailing silent blocks : NoNull samples used in CRC calculations : YesUsed interface : Native Win32 interface for Win NT & 2000Gap handling : Appended to previous track

Used output format : User Defined EncoderSelected bitrate : 768 kBit/sQuality : HighAdd ID3 tag : NoCommand line compressor : C:\Exact Audio Copy\Flac\flac.exeAdditional command line options : -8 -V -T "ARTIST=%a" -T "TITLE=%t" -T "ALBUM=%g" -T "DATE=%y" -T "TRACKNUMBER=%n" -T "TOTALTRACKS=%x" -T "GENRE=%m" -T "ALBUMARTIST=%v" -T "ALBUM ARTIST=%v"-T "COMMENT=EAC Secure Mode, Test & Copy, AccurateRip, FLAC -8" %s

TOC of the extracted CD

Track | Start | Length | Start sector | End sector --------------------------------------------------------- 1 | 0:00.00 | 5:11.42 | 0 | 23366 2 | 5:11.42 | 3:46.20 | 23367 | 40336 3 | 8:57.62 | 3:13.15 | 40337 | 54826 4 | 12:11.02 | 6:45.50 | 54827 | 85251 5 | 18:56.52 | 4:28.00 | 85252 | 105351 6 | 23:24.52 | 3:35.50 | 105352 | 121526 7 | 27:00.27 | 3:22.00 | 121527 | 136676 8 | 30:22.27 | 4:06.70 | 136677 | 155196 9 | 34:29.22 | 4:23.30 | 155197 | 174951 10 | 38:52.52 | 3:20.18 | 174952 | 189969

Track 1

Filename E:\Flac\01 - Lively Up Yourself.wav

Pre-gap length 0:00:02.00

Peak level 97.7 % Track quality 100.0 % Test CRC 4EEBD50E Copy CRC 4EEBD50E Cannot be verified as accurate (confidence 2) [669842AA], AccurateRip returned [0F9B6E4C] Copy OK

Track 2

Filename E:\Flac\02 - No Woman, No Cry.wav

Pre-gap length 0:00:00.82

Peak level 97.7 % Track quality 100.0 % Test CRC 4D7BEDA7 Copy CRC 4D7BEDA7 Cannot be verified as accurate (confidence 2) [172F2A88], AccurateRip returned [38F03681] Copy OK

Track 3

Filename E:\Flac\03 - Them Belly Full (But We Hungry).wav

Peak level 97.7 % Track quality 100.0 % Test CRC F61DF2CA Copy CRC F61DF2CA Cannot be verified as accurate (confidence 2) [3ACD03E7], AccurateRip returned [B33626FD] Copy OK

Track 4

Filename E:\Flac\04 - Rebel Music (3 O'Clock Roadblock).wav

Peak level 97.7 % Track quality 100.0 % Test CRC 201DCF67 Copy CRC 201DCF67 Cannot be verified as accurate (confidence 2) [FCDFFEAF], AccurateRip returned [F461E5A6] Copy OK

Track 5

Filename E:\Flac\05 - So Jah Seh.wav

Peak level 97.7 % Track quality 100.0 % Test CRC C2CD8F4C Copy CRC C2CD8F4C Cannot be verified as accurate (confidence 2) [CCF0F7DD], AccurateRip returned [7C857936] Copy OK

Track 6

Filename E:\Flac\06 - Natty Dread.wav

Peak level 97.7 % Track quality 100.0 % Test CRC E420E65C Copy CRC E420E65C Cannot be verified as accurate (confidence 2) [55181104], AccurateRip returned [EC59A430] Copy OK

Track 7

Filename E:\Flac\07 - Bend Down Low.wav

Peak level 97.7 % Track quality 100.0 % Test CRC 308C0ED4 Copy CRC 308C0ED4 Cannot be verified as accurate (confidence 2) [B1867845], AccurateRip returned [AE1B4C8A] Copy OK

Track 8

Filename E:\Flac\08 - Talkin' Blues.wav

Pre-gap length 0:00:02.09

Peak level 97.7 % Track quality 100.0 % Test CRC 1EA003AB Copy CRC 1EA003AB Cannot be verified as accurate (confidence 2) [03A18987], AccurateRip returned [5C86808D] Copy OK

Track 9

Filename E:\Flac\09 - Revolution.wav

Peak level 97.7 % Track quality 100.0 % Test CRC D2D2DCAA Copy CRC D2D2DCAA Cannot be verified as accurate (confidence 2) [5B16D35F], AccurateRip returned [0FA9CA40] Copy OK

Track 10

Filename E:\Flac\10 - Am-A-Do.wav

Pre-gap length 0:00:02.49

Peak level 99.9 % Track quality 99.9 % Test CRC 9162FA89 Copy CRC 9162FA89 Cannot be verified as accurate (confidence 2) [0B0FA467], AccurateRip returned [8EDF516E] Copy OK

No tracks could be verified as accurateYou may have a different pressing from the one(s) in the database

No errors occurred

End of status report
  
REM GENRE ReggaeREM DATE 1974REM DISCID 6F09E40AREM COMMENT "ExactAudioCopy v0.99pb5"PERFORMER "Bob Marley & The Wailers"TITLE "Natty Dread"FILE "01 - Lively Up Yourself.wav" WAVE TRACK 01 AUDIO TITLE "Lively Up Yourself" PERFORMER "Bob Marley & The Wailers" INDEX 01 00:00:00 TRACK 02 AUDIO TITLE "No Woman, No Cry" PERFORMER "Bob Marley & The Wailers" INDEX 00 05:10:55FILE "02 - No Woman, No Cry.wav" WAVE INDEX 01 00:00:00FILE "03 - Them Belly Full (But We Hungry).wav" WAVE TRACK 03 AUDIO TITLE "Them Belly Full (But We Hungry)" PERFORMER "Bob Marley & The Wailers" INDEX 01 00:00:00FILE "04 - Rebel Music (3 O'Clock Roadblock).wav" WAVE TRACK 04 AUDIO TITLE "Rebel Music (3 O'Clock Roadblock)" PERFORMER "Bob Marley & The Wailers" INDEX 01 00:00:00FILE "05 - So Jah Seh.wav" WAVE TRACK 05 AUDIO TITLE "So Jah Seh" PERFORMER "Bob Marley & The Wailers" INDEX 01 00:00:00FILE "06 - Natty Dread.wav" WAVE TRACK 06 AUDIO TITLE "Natty Dread" PERFORMER "Bob Marley & The Wailers" INDEX 01 00:00:00FILE "07 - Bend Down Low.wav" WAVE TRACK 07 AUDIO TITLE "Bend Down Low" PERFORMER "Bob Marley & The Wailers" INDEX 01 00:00:00 TRACK 08 AUDIO TITLE "Talkin' Blues" PERFORMER "Bob Marley & The Wailers" INDEX 00 03:19:68FILE "08 - Talkin' Blues.wav" WAVE INDEX 01 00:00:00FILE "09 - Revolution.wav" WAVE TRACK 09 AUDIO TITLE "Revolution" PERFORMER "Bob Marley & The Wailers" INDEX 01 00:00:00 TRACK 10 AUDIO TITLE "Am-A-Do (bonus track)" PERFORMER "Bob Marley & The Wailers" INDEX 00 04:20:68FILE "10 - Am-A-Do (bonus track).wav" WAVE INDEX 01 00:00:00
Треклист:

01 - Trenchtown Rock - 4:23
02 - Burnin' & Lootin' - 5:12
03 - Them Belly Full (But We Hungry) - 4:36
04 - Lively Up Yourself - 4:34
05 - No Woman, No Cry - 7:08
06 - I Shot The Sheriff - 5:18
07 - Get Up, Stand Up - 6:32
08 - Kinky Reggae (bonus track) - 7:36
  
Exact Audio Copy V0.99 prebeta 5 from 4. May 2009

EAC extraction logfile from 18. May 2011, 11:22

Bob Marley & The Wailers / Live!

Used drive : PLEXTOR CD-R PREMIUM2 Adapter: 4 ID: 1

Read mode : SecureUtilize accurate stream : YesDefeat audio cache : YesMake use of C2 pointers : No

Read offset correction : 30Overread into Lead-In and Lead-Out : YesFill up missing offset samples with silence : YesDelete leading and trailing silent blocks : NoNull samples used in CRC calculations : YesUsed interface : Native Win32 interface for Win NT & 2000Gap handling : Appended to previous track

Used output format : User Defined EncoderSelected bitrate : 768 kBit/sQuality : HighAdd ID3 tag : NoCommand line compressor : C:\Exact Audio Copy\Flac\flac.exeAdditional command line options : -8 -V -T "ARTIST=%a" -T "TITLE=%t" -T "ALBUM=%g" -T "DATE=%y" -T "TRACKNUMBER=%n" -T "TOTALTRACKS=%x" -T "GENRE=%m" -T "ALBUMARTIST=%v" -T "ALBUM ARTIST=%v"-T "COMMENT=EAC Secure Mode, Test & Copy, AccurateRip, FLAC -8" %s

TOC of the extracted CD

Track | Start | Length | Start sector | End sector --------------------------------------------------------- 1 | 0:00.00 | 4:23.20 | 0 | 19744 2 | 4:23.20 | 5:11.40 | 19745 | 43109 3 | 9:34.60 | 4:36.20 | 43110 | 63829 4 | 14:11.05 | 4:33.45 | 63830 | 84349 5 | 18:44.50 | 7:07.60 | 84350 | 116434 6 | 25:52.35 | 5:18.35 | 116435 | 140319 7 | 31:10.70 | 6:32.00 | 140320 | 169719 8 | 37:42.70 | 7:35.40 | 169720 | 203884

Track 1

Filename E:\Flac\01 - Trenchtown Rock.wav

Pre-gap length 0:00:02.00

Peak level 98.7 % Track quality 100.0 % Test CRC 20E3D079 Copy CRC 20E3D079 Track not present in AccurateRip database Copy OK

Track 2

Filename E:\Flac\02 - Burnin' & Lootin'.wav

Peak level 98.7 % Track quality 100.0 % Test CRC 2396C2A5 Copy CRC 2396C2A5 Track not present in AccurateRip database Copy OK

Track 3

Filename E:\Flac\03 - Them Belly Full (But We Hungry).wav

Peak level 98.7 % Track quality 99.9 % Test CRC 65C5CBDB Copy CRC 65C5CBDB Track not present in AccurateRip database Copy OK

Track 4

Filename E:\Flac\04 - Lively Up Yourself.wav

Peak level 98.7 % Track quality 99.9 % Test CRC 2E3B78A7 Copy CRC 2E3B78A7 Track not present in AccurateRip database Copy OK

Track 5

Filename E:\Flac\05 - No Woman, No Cry.wav

Peak level 98.7 % Track quality 100.0 % Test CRC 21614021 Copy CRC 21614021 Track not present in AccurateRip database Copy OK

Track 6

Filename E:\Flac\06 - I Shot The Sheriff.wav

Peak level 98.7 % Track quality 99.9 % Test CRC 58459461 Copy CRC 58459461 Track not present in AccurateRip database Copy OK

Track 7

Filename E:\Flac\07 - Get Up, Stand Up.wav

Peak level 98.7 % Track quality 100.0 % Test CRC 2389B896 Copy CRC 2389B896 Track not present in AccurateRip database Copy OK

Track 8

Filename E:\Flac\08 - Kinky Reggae.wav

Pre-gap length 0:00:04.00

Peak level 99.9 % Track quality 100.0 % Test CRC 26E5231B Copy CRC 26E5231B Track not present in AccurateRip database Copy OK

None of the tracks are present in the AccurateRip database

No errors occurred

End of status report
  
REM GENRE ReggaeREM DATE 1975REM DISCID 6A0A9E08REM COMMENT "ExactAudioCopy v0.99pb5"PERFORMER "Bob Marley & The Wailers"TITLE "Live!"FILE "01 - Trenchtown Rock.wav" WAVE TRACK 01 AUDIO TITLE "Trenchtown Rock" PERFORMER "Bob Marley & The Wailers" INDEX 01 00:00:00FILE "02 - Burnin' & Lootin'.wav" WAVE TRACK 02 AUDIO TITLE "Burnin' & Lootin'" PERFORMER "Bob Marley & The Wailers" INDEX 01 00:00:00FILE "03 - Them Belly Full (But We Hungry).wav" WAVE TRACK 03 AUDIO TITLE "Them Belly Full (But We Hungry)" PERFORMER "Bob Marley & The Wailers" INDEX 01 00:00:00FILE "04 - Lively Up Yourself.wav" WAVE TRACK 04 AUDIO TITLE "Lively Up Yourself" PERFORMER "Bob Marley & The Wailers" INDEX 01 00:00:00FILE "05 - No Woman, No Cry.wav" WAVE TRACK 05 AUDIO TITLE "No Woman, No Cry" PERFORMER "Bob Marley & The Wailers" INDEX 01 00:00:00FILE "06 - I Shot The Sheriff.wav" WAVE TRACK 06 AUDIO TITLE "I Shot The Sheriff" PERFORMER "Bob Marley & The Wailers" INDEX 01 00:00:00FILE "07 - Get Up, Stand Up.wav" WAVE TRACK 07 AUDIO TITLE "Get Up, Stand Up" PERFORMER "Bob Marley & The Wailers" INDEX 01 00:00:00 TRACK 08 AUDIO TITLE "Kinky Reggae (bonus track)" PERFORMER "Bob Marley & The Wailers" INDEX 00 06:28:00FILE "08 - Kinky Reggae (bonus track).wav" WAVE INDEX 01 00:00:00
Треклист:

01 - Positive Vibration - 3:34
02 - Roots, Rock, Reggae - 3:38
03 - Johnny Was - 3:48
04 - Cry To Me - 2:36
05 - Want More - 4:15
06 - Crazy Baldhead - 3:12
07 - Who The Cap Fit - 4:43
08 - Night Shift - 3:11
09 - War - 3:37
10 - Rat Race - 2:53
11 - Jah Live (bonus track) - 4:14
  
Exact Audio Copy V0.99 prebeta 5 from 4. May 2009

EAC extraction logfile from 20. May 2011, 9:09

Bob Marley & The Wailers / Rastaman Vibration

Used drive : PLEXTOR CD-R PREMIUM2 Adapter: 4 ID: 1

Read mode : SecureUtilize accurate stream : YesDefeat audio cache : YesMake use of C2 pointers : No

Read offset correction : 30Overread into Lead-In and Lead-Out : YesFill up missing offset samples with silence : YesDelete leading and trailing silent blocks : NoNull samples used in CRC calculations : YesUsed interface : Native Win32 interface for Win NT & 2000Gap handling : Appended to previous track

Used output format : User Defined EncoderSelected bitrate : 768 kBit/sQuality : HighAdd ID3 tag : NoCommand line compressor : C:\Exact Audio Copy\Flac\flac.exeAdditional command line options : -8 -V -T "ARTIST=%a" -T "TITLE=%t" -T "ALBUM=%g" -T "DATE=%y" -T "TRACKNUMBER=%n" -T "TOTALTRACKS=%x" -T "GENRE=%m" -T "ALBUMARTIST=%v" -T "ALBUM ARTIST=%v"-T "COMMENT=EAC Secure Mode, Test & Copy, AccurateRip, FLAC -8" %s

TOC of the extracted CD

Track | Start | Length | Start sector | End sector --------------------------------------------------------- 1 | 0:00.00 | 3:34.02 | 0 | 16051 2 | 3:34.02 | 3:38.30 | 16052 | 32431 3 | 7:12.32 | 3:48.05 | 32432 | 49536 4 | 11:00.37 | 2:36.00 | 49537 | 61236 5 | 13:36.37 | 4:15.15 | 61237 | 80376 6 | 17:51.52 | 3:11.70 | 80377 | 94771 7 | 21:03.47 | 4:43.05 | 94772 | 116001 8 | 25:46.52 | 3:10.70 | 116002 | 130321 9 | 28:57.47 | 3:36.40 | 130322 | 146561 10 | 32:34.12 | 2:53.03 | 146562 | 159539 11 | 35:27.15 | 4:13.45 | 159540 | 178559

Track 1

Filename E:\Flac\01 - Positive Vibration.wav

Pre-gap length 0:00:02.00

Peak level 99.9 % Track quality 100.0 % Test CRC 1EE47F61 Copy CRC 1EE47F61 Cannot be verified as accurate (confidence 2) [65BA513B], AccurateRip returned [5E2FB7DD] Copy OK

Track 2

Filename E:\Flac\02 - Roots, Rock, Reggae.wav

Peak level 99.9 % Track quality 100.0 % Test CRC 966A1CDE Copy CRC 966A1CDE Cannot be verified as accurate (confidence 2) [2BC2180D], AccurateRip returned [1B5B0E27] Copy OK

Track 3

Filename E:\Flac\03 - Johnny Was.wav

Peak level 99.9 % Track quality 100.0 % Test CRC 356AA8F9 Copy CRC 356AA8F9 Cannot be verified as accurate (confidence 2) [13CD8C6A], AccurateRip returned [D2C2F9F9] Copy OK

Track 4

Filename E:\Flac\04 - Cry To Me.wav

Peak level 99.9 % Track quality 100.0 % Test CRC 7E7F3AFE Copy CRC 7E7F3AFE Cannot be verified as accurate (confidence 2) [46487DB3], AccurateRip returned [632B6B0F] Copy OK

Track 5

Filename E:\Flac\05 - Want More.wav

Peak level 99.9 % Track quality 100.0 % Test CRC EC53A7C4 Copy CRC EC53A7C4 Cannot be verified as accurate (confidence 2) [A38A43A6], AccurateRip returned [011E0249] Copy OK

Track 6

Filename E:\Flac\06 - Crazy Baldhead.wav

Pre-gap length 0:00:00.56

Peak level 99.9 % Track quality 99.9 % Test CRC 1D0A1184 Copy CRC 1D0A1184 Cannot be verified as accurate (confidence 2) [D333E857], AccurateRip returned [A87A1688] Copy OK

Track 7

Filename E:\Flac\07 - Who The Cap Fit.wav

Peak level 99.9 % Track quality 100.0 % Test CRC 54020C87 Copy CRC 54020C87 Cannot be verified as accurate (confidence 2) [5F2B55D2], AccurateRip returned [2FAB038B] Copy OK

Track 8

Filename E:\Flac\08 - Night Shift.wav

Peak level 99.9 % Track quality 99.9 % Test CRC 9EDE5FB1 Copy CRC 9EDE5FB1 Cannot be verified as accurate (confidence 2) [6F0DAC01], AccurateRip returned [1E01E4FE] Copy OK

Track 9

Filename E:\Flac\09 - War.wav

Peak level 99.9 % Track quality 99.9 % Test CRC 79875B8A Copy CRC 79875B8A Cannot be verified as accurate (confidence 2) [D9A6C5A1], AccurateRip returned [4214D372] Copy OK

Track 10

Filename E:\Flac\10 - Rat Race.wav

Peak level 99.9 % Track quality 100.0 % Test CRC E3BC34C4 Copy CRC E3BC34C4 Cannot be verified as accurate (confidence 2) [4CEE078A], AccurateRip returned [58945C32] Copy OK

Track 11

Filename E:\Flac\11 - Jah Live (Bonus Track).wav

Pre-gap length 0:00:02.26

Peak level 83.8 % Track quality 100.0 % Test CRC 913477D7 Copy CRC 913477D7 Cannot be verified as accurate (confidence 2) [F6624763], AccurateRip returned [4F0B3C79] Copy OK

No tracks could be verified as accurateYou may have a different pressing from the one(s) in the database

No errors occurred

End of status report
  
REM GENRE ReggaeREM DATE 1976REM DISCID 97094C0BREM COMMENT "ExactAudioCopy v0.99pb5"PERFORMER "Bob Marley & The Wailers"TITLE "Rastaman Vibration"FILE "01 - Positive Vibration.wav" WAVE TRACK 01 AUDIO TITLE "Positive Vibration" PERFORMER "Bob Marley & The Wailers" INDEX 01 00:00:00FILE "02 - Roots, Rock, Reggae.wav" WAVE TRACK 02 AUDIO TITLE "Roots, Rock, Reggae" PERFORMER "Bob Marley & The Wailers" INDEX 01 00:00:00FILE "03 - Johnny Was.wav" WAVE TRACK 03 AUDIO TITLE "Johnny Was" PERFORMER "Bob Marley & The Wailers" INDEX 01 00:00:00FILE "04 - Cry To Me.wav" WAVE TRACK 04 AUDIO TITLE "Cry To Me" PERFORMER "Bob Marley & The Wailers" INDEX 01 00:00:00FILE "05 - Want More.wav" WAVE TRACK 05 AUDIO TITLE "Want More" PERFORMER "Bob Marley & The Wailers" INDEX 01 00:00:00 TRACK 06 AUDIO TITLE "Crazy Baldhead" PERFORMER "Bob Marley & The Wailers" INDEX 00 04:14:48FILE "06 - Crazy Baldhead.wav" WAVE INDEX 01 00:00:00FILE "07 - Who The Cap Fit.wav" WAVE TRACK 07 AUDIO TITLE "Who The Cap Fit" PERFORMER "Bob Marley & The Wailers" INDEX 01 00:00:00FILE "08 - Night Shift.wav" WAVE TRACK 08 AUDIO TITLE "Night Shift" PERFORMER "Bob Marley & The Wailers" INDEX 01 00:00:00FILE "09 - War.wav" WAVE TRACK 09 AUDIO TITLE "War" PERFORMER "Bob Marley & The Wailers" INDEX 01 00:00:00FILE "10 - Rat Race.wav" WAVE TRACK 10 AUDIO TITLE "Rat Race" PERFORMER "Bob Marley & The Wailers" INDEX 01 00:00:00 TRACK 11 AUDIO TITLE "Jah Live (bonus track)" PERFORMER "Bob Marley & The Wailers" INDEX 00 02:50:58FILE "11 - Jah Live (bonus track).wav" WAVE INDEX 01 00:00:00
Треклист:

01 - Natural Mystic - 3:28
02 - So Much Things To Say - 3:08
03 - Guiltiness - 3:20
04 - The Heathen - 2:32
05 - Exodus - 7:40
06 - Jamming - 3:31
07 - Waiting In Vain - 4:16
08 - Turn Your Lights Down Low - 3:39
09 - Three Little Birds - 3:00
10 - One Love / People Get Ready - 2:56
11 - Jamming (long version) (bonus track) - 5:55
12 - Punky Reggae Party (long version) (bonus track) - 6:52
  
Exact Audio Copy V0.99 prebeta 5 from 4. May 2009

EAC extraction logfile from 19. May 2011, 6:28

Bob Marley & The Wailers / Exodus

Used drive : PLEXTOR CD-R PREMIUM2 Adapter: 4 ID: 1

Read mode : SecureUtilize accurate stream : YesDefeat audio cache : YesMake use of C2 pointers : No

Read offset correction : 30Overread into Lead-In and Lead-Out : YesFill up missing offset samples with silence : YesDelete leading and trailing silent blocks : NoNull samples used in CRC calculations : YesUsed interface : Native Win32 interface for Win NT & 2000Gap handling : Appended to previous track

Used output format : User Defined EncoderSelected bitrate : 768 kBit/sQuality : HighAdd ID3 tag : NoCommand line compressor : C:\Exact Audio Copy\Flac\flac.exeAdditional command line options : -8 -V -T "ARTIST=%a" -T "TITLE=%t" -T "ALBUM=%g" -T "DATE=%y" -T "TRACKNUMBER=%n" -T "TOTALTRACKS=%x" -T "GENRE=%m" -T "ALBUMARTIST=%v" -T "ALBUM ARTIST=%v"-T "COMMENT=EAC Secure Mode, Test & Copy, AccurateRip, FLAC -8" %s

TOC of the extracted CD

Track | Start | Length | Start sector | End sector --------------------------------------------------------- 1 | 0:00.00 | 3:27.55 | 0 | 15579 2 | 3:27.55 | 3:08.02 | 15580 | 29681 3 | 6:35.57 | 3:19.73 | 29682 | 44679 4 | 9:55.55 | 2:32.05 | 44680 | 56084 5 | 12:27.60 | 7:40.17 | 56085 | 90601 6 | 20:08.02 | 3:31.00 | 90602 | 106426 7 | 23:39.02 | 4:16.18 | 106427 | 125644 8 | 27:55.20 | 3:39.27 | 125645 | 142096 9 | 31:34.47 | 3:00.20 | 142097 | 155616 10 | 34:34.67 | 2:56.18 | 155617 | 168834 11 | 37:31.10 | 5:55.20 | 168835 | 195479 12 | 43:26.30 | 6:52.22 | 195480 | 226401

Track 1

Filename E:\Flac\01 - Natural Mystic.wav

Peak level 91.9 % Track quality 100.0 % Test CRC C249EEE2 Copy CRC C249EEE2 Cannot be verified as accurate (confidence 60) [869A4B9B], AccurateRip returned [9B9E20D3] Copy OK

Track 2

Filename E:\Flac\02 - So Much Things To Say.wav

Peak level 91.9 % Track quality 100.0 % Test CRC 0779FD23 Copy CRC 0779FD23 Cannot be verified as accurate (confidence 60) [52D76990], AccurateRip returned [EAE931E6] Copy OK

Track 3

Filename E:\Flac\03 - Guiltiness.wav

Peak level 91.9 % Track quality 100.0 % Test CRC 3BDC4D36 Copy CRC 3BDC4D36 Cannot be verified as accurate (confidence 60) [972645B1], AccurateRip returned [5A954FF4] Copy OK

Track 4

Filename E:\Flac\04 - The Heathen.wav

Peak level 91.9 % Track quality 99.9 % Test CRC F61E01BC Copy CRC F61E01BC Cannot be verified as accurate (confidence 60) [B440325B], AccurateRip returned [6752E30E] Copy OK

Track 5

Filename E:\Flac\05 - Exodus.wav

Peak level 91.9 % Track quality 99.9 % Test CRC 03D8D940 Copy CRC 03D8D940 Cannot be verified as accurate (confidence 59) [D3368FB6], AccurateRip returned [A2DE4BA0] Copy OK

Track 6

Filename E:\Flac\06 - Jamming.wav

Peak level 91.9 % Track quality 100.0 % Test CRC C03E6153 Copy CRC C03E6153 Cannot be verified as accurate (confidence 60) [700255B1], AccurateRip returned [1F41F6C3] Copy OK

Track 7

Filename E:\Flac\07 - Waiting In Vain.wav

Peak level 91.9 % Track quality 100.0 % Test CRC 119ABD70 Copy CRC 119ABD70 Cannot be verified as accurate (confidence 60) [D7231B75], AccurateRip returned [C7561FD3] Copy OK

Track 8

Filename E:\Flac\08 - Turn Your Lights Down Low.wav

Peak level 91.9 % Track quality 100.0 % Test CRC FF8575CA Copy CRC FF8575CA Cannot be verified as accurate (confidence 60) [3FF36922], AccurateRip returned [DED3FE65] Copy OK

Track 9

Filename E:\Flac\09 - Three Little Birds.wav

Peak level 91.9 % Track quality 100.0 % Test CRC 4AA76F7D Copy CRC 4AA76F7D Cannot be verified as accurate (confidence 60) [E53157A8], AccurateRip returned [CCB5C948] Copy OK

Track 10

Filename E:\Flac\10 - One Love - People Get Ready.wav

Peak level 91.9 % Track quality 100.0 % Test CRC 0C14D2C0 Copy CRC 0C14D2C0 Cannot be verified as accurate (confidence 60) [99A48331], AccurateRip returned [BBD62B9E] Copy OK

Track 11

Filename E:\Flac\11 - Jamming (Long Version).wav

Peak level 99.8 % Track quality 100.0 % Test CRC 6E9ED871 Copy CRC 6E9ED871 Cannot be verified as accurate (confidence 60) [1B2ED591], AccurateRip returned [BC517463] Copy OK

Track 12

Filename E:\Flac\12 - Punky Reggae Party (Long Version).wav

Peak level 99.8 % Track quality 100.0 % Test CRC CF9D9B8E Copy CRC CF9D9B8E Cannot be verified as accurate (confidence 59) [EF7AB148], AccurateRip returned [275C307D] Copy OK

No tracks could be verified as accurateYou may have a different pressing from the one(s) in the database

No errors occurred

End of status report
  
REM GENRE ReggaeREM DATE 1977REM DISCID AD0BCA0CREM COMMENT "ExactAudioCopy v0.99pb5"PERFORMER "Bob Marley & The Wailers"TITLE "Exodus"FILE "01 - Natural Mystic.wav" WAVE TRACK 01 AUDIO TITLE "Natural Mystic" PERFORMER "Bob Marley & The Wailers" INDEX 01 00:00:00FILE "02 - So Much Things To Say.wav" WAVE TRACK 02 AUDIO TITLE "So Much Things To Say" PERFORMER "Bob Marley & The Wailers" INDEX 01 00:00:00FILE "03 - Guiltiness.wav" WAVE TRACK 03 AUDIO TITLE "Guiltiness" PERFORMER "Bob Marley & The Wailers" INDEX 01 00:00:00FILE "04 - The Heathen.wav" WAVE TRACK 04 AUDIO TITLE "The Heathen" PERFORMER "Bob Marley & The Wailers" INDEX 01 00:00:00FILE "05 - Exodus.wav" WAVE TRACK 05 AUDIO TITLE "Exodus" PERFORMER "Bob Marley & The Wailers" INDEX 01 00:00:00FILE "06 - Jamming.wav" WAVE TRACK 06 AUDIO TITLE "Jamming" PERFORMER "Bob Marley & The Wailers" INDEX 01 00:00:00FILE "07 - Waiting In Vain.wav" WAVE TRACK 07 AUDIO TITLE "Waiting In Vain" PERFORMER "Bob Marley & The Wailers" INDEX 01 00:00:00FILE "08 - Turn Your Lights Down Low.wav" WAVE TRACK 08 AUDIO TITLE "Turn Your Lights Down Low" PERFORMER "Bob Marley & The Wailers" INDEX 01 00:00:00FILE "09 - Three Little Birds.wav" WAVE TRACK 09 AUDIO TITLE "Three Little Birds" PERFORMER "Bob Marley & The Wailers" INDEX 01 00:00:00FILE "10 - One Love _ People Get Ready.wav" WAVE TRACK 10 AUDIO TITLE "One Love _ People Get Ready" PERFORMER "Bob Marley & The Wailers" INDEX 01 00:00:00 TRACK 11 AUDIO TITLE "Jamming (long version) (bonus track)" PERFORMER "Bob Marley & The Wailers" INDEX 00 02:52:70FILE "11 - Jamming (long version) (bonus track).wav" WAVE INDEX 01 00:00:00 TRACK 12 AUDIO TITLE "Punky Reggae Party (long version) (bonus track)" PERFORMER "Bob Marley & The Wailers" INDEX 00 05:52:52FILE "12 - Punky Reggae Party (long version) (bonus track).wav" WAVE INDEX 01 00:00:00
Треклист:

01 - Easy Skanking - 2:59
02 - Kaya - 3:16
03 - Is This Love - 3:52
04 - Sun Is Shining - 4:58
05 - Satisfy My Soul - 4:33
06 - She's Gone - 2:26
07 - Misty Morning - 3:34
08 - Crisis - 3:55
09 - Running Away - 4:16
10 - Time Will Tell - 3:34
11 - Smile Jamaica (version) (bonus track) - 5:03
  
Exact Audio Copy V0.99 prebeta 5 from 4. May 2009

EAC extraction logfile from 19. May 2011, 21:52

Bob Marley & The Wailers / Kaya

Used drive : PLEXTOR CD-R PREMIUM2 Adapter: 4 ID: 1

Read mode : SecureUtilize accurate stream : YesDefeat audio cache : YesMake use of C2 pointers : No

Read offset correction : 30Overread into Lead-In and Lead-Out : YesFill up missing offset samples with silence : YesDelete leading and trailing silent blocks : NoNull samples used in CRC calculations : YesUsed interface : Native Win32 interface for Win NT & 2000Gap handling : Appended to previous track

Used output format : User Defined EncoderSelected bitrate : 768 kBit/sQuality : HighAdd ID3 tag : NoCommand line compressor : C:\Exact Audio Copy\Flac\flac.exeAdditional command line options : -8 -V -T "ARTIST=%a" -T "TITLE=%t" -T "ALBUM=%g" -T "DATE=%y" -T "TRACKNUMBER=%n" -T "TOTALTRACKS=%x" -T "GENRE=%m" -T "ALBUMARTIST=%v" -T "ALBUM ARTIST=%v"-T "COMMENT=EAC Secure Mode, Test & Copy, AccurateRip, FLAC -8" %s

TOC of the extracted CD

Track | Start | Length | Start sector | End sector --------------------------------------------------------- 1 | 0:00.00 | 2:58.42 | 0 | 13391 2 | 2:58.42 | 3:15.55 | 13392 | 28071 3 | 6:14.22 | 3:52.25 | 28072 | 45496 4 | 10:06.47 | 4:58.28 | 45497 | 67874 5 | 15:05.00 | 4:33.02 | 67875 | 88351 6 | 19:38.02 | 2:25.48 | 88352 | 99274 7 | 22:03.50 | 3:33.65 | 99275 | 115314 8 | 25:37.40 | 3:54.57 | 115315 | 132921 9 | 29:32.22 | 4:15.40 | 132922 | 152086 10 | 33:47.62 | 3:33.43 | 152087 | 168104 11 | 37:21.30 | 5:03.32 | 168105 | 190861

Track 1

Filename E:\Flac\01 - Easy Skanking.wav

Pre-gap length 0:00:02.00

Peak level 99.8 % Track quality 100.0 % Test CRC AF34AB38 Copy CRC AF34AB38 Track not present in AccurateRip database Copy OK

Track 2

Filename C:\EAC\Bob Marley & The Wailers - Kaya (1978) [FLAC] (Japan Mini LP 2005 Reissue)\02 - Kaya.wav

Peak level 99.8 % Track quality 100.0 % Test CRC A7C88C5D Copy CRC A7C88C5D Track not present in AccurateRip database Copy OK

Track 3

Filename E:\Flac\03 - Is This Love.wav

Peak level 99.8 % Track quality 100.0 % Test CRC 68C585A3 Copy CRC 68C585A3 Track not present in AccurateRip database Copy OK

Track 4

Filename E:\Flac\04 - Sun Is Shining.wav

Pre-gap length 0:00:01.20

Peak level 99.8 % Track quality 100.0 % Test CRC 5DE256E0 Copy CRC 5DE256E0 Track not present in AccurateRip database Copy OK

Track 5

Filename E:\Flac\05 - Satisfy My Soul.wav

Peak level 99.8 % Track quality 100.0 % Test CRC 03FAD670 Copy CRC 03FAD670 Track not present in AccurateRip database Copy OK

Track 6

Filename E:\Flac\06 - She's Gone.wav

Pre-gap length 0:00:02.29

Peak level 99.8 % Track quality 100.0 % Test CRC 64A38CF7 Copy CRC 64A38CF7 Track not present in AccurateRip database Copy OK

Track 7

Filename E:\Flac\07 - Misty Morning.wav

Peak level 99.8 % Track quality 99.9 % Test CRC 661E974E Copy CRC 661E974E Track not present in AccurateRip database Copy OK

Track 8

Filename E:\Flac\08 - Crisis.wav

Peak level 99.8 % Track quality 99.9 % Test CRC 72469CEF Copy CRC 72469CEF Track not present in AccurateRip database Copy OK

Track 9

Filename E:\Flac\09 - Running Away.wav

Peak level 99.8 % Track quality 100.0 % Test CRC 7935B6B7 Copy CRC 7935B6B7 Track not present in AccurateRip database Copy OK

Track 10

Filename E:\Flac\10 - Time Will Tell.wav

Peak level 99.8 % Track quality 100.0 % Test CRC E901D5E1 Copy CRC E901D5E1 Track not present in AccurateRip database Copy OK

Track 11

Filename E:\Flac\11 - Smile Jamaica (Version).wav

Pre-gap length 0:00:02.57

Peak level 99.8 % Track quality 100.0 % Test CRC 9B3D1AEB Copy CRC 9B3D1AEB Track not present in AccurateRip database Copy OK

None of the tracks are present in the AccurateRip database

No errors occurred

End of status report
  
REM GENRE ReggaeREM DATE 1978REM DISCID 8B09F00BREM COMMENT "ExactAudioCopy v0.99pb5"PERFORMER "Bob Marley & The Wailers"TITLE "Kaya"FILE "01 - Easy Skanking.wav" WAVE TRACK 01 AUDIO TITLE "Easy Skanking" PERFORMER "Bob Marley & The Wailers" INDEX 01 00:00:00FILE "02 - Kaya.wav" WAVE TRACK 02 AUDIO TITLE "Kaya" PERFORMER "Bob Marley & The Wailers" INDEX 01 00:00:00FILE "03 - Is This Love.wav" WAVE TRACK 03 AUDIO TITLE "Is This Love" PERFORMER "Bob Marley & The Wailers" INDEX 01 00:00:00 TRACK 04 AUDIO TITLE "Sun Is Shining" PERFORMER "Bob Marley & The Wailers" INDEX 00 03:51:10FILE "04 - Sun Is Shining.wav" WAVE INDEX 01 00:00:00FILE "05 - Satisfy My Soul.wav" WAVE TRACK 05 AUDIO TITLE "Satisfy My Soul" PERFORMER "Bob Marley & The Wailers" INDEX 01 00:00:00 TRACK 06 AUDIO TITLE "She's Gone" PERFORMER "Bob Marley & The Wailers" INDEX 00 04:30:55FILE "06 - She's Gone.wav" WAVE INDEX 01 00:00:00FILE "07 - Misty Morning.wav" WAVE TRACK 07 AUDIO TITLE "Misty Morning" PERFORMER "Bob Marley & The Wailers" INDEX 01 00:00:00FILE "08 - Crisis.wav" WAVE TRACK 08 AUDIO TITLE "Crisis" PERFORMER "Bob Marley & The Wailers" INDEX 01 00:00:00FILE "09 - Running Away.wav" WAVE TRACK 09 AUDIO TITLE "Running Away" PERFORMER "Bob Marley & The Wailers" INDEX 01 00:00:00FILE "10 - Time Will Tell.wav" WAVE TRACK 10 AUDIO TITLE "Time Will Tell" PERFORMER "Bob Marley & The Wailers" INDEX 01 00:00:00 TRACK 11 AUDIO TITLE "Smile Jamaica (version) (bonus track)" PERFORMER "Bob Marley & The Wailers" INDEX 00 03:31:00FILE "11 - Smile Jamaica (version) (bonus track).wav" WAVE INDEX 01 00:00:00
Треклист:

01 - Positive Vibration - 5:50
02 - Punky Reggae Party - 5:52
03 - Exodus - 7:42
04 - Stir It Up - 5:17
05 - Rat Race - 3:41
06 - Concrete Jungle - 5:37
07 - Kinky Reggae - 4:46
08 - Lively Up Yourself - 6:18
09 - Rebel Music - 5:21
10 - War / No More Trouble - 5:28
11 - Is This Love - 7:28
12 - Heathen - 4:30
13 - Jamming - 5:55
  
Exact Audio Copy V0.99 prebeta 5 from 4. May 2009

EAC extraction logfile from 20. May 2011, 18:16

Bob Marley & The Wailers / Babylon By Bus

Used drive : PLEXTOR CD-R PREMIUM2 Adapter: 4 ID: 1

Read mode : SecureUtilize accurate stream : YesDefeat audio cache : YesMake use of C2 pointers : No

Read offset correction : 30Overread into Lead-In and Lead-Out : YesFill up missing offset samples with silence : YesDelete leading and trailing silent blocks : NoNull samples used in CRC calculations : YesUsed interface : Native Win32 interface for Win NT & 2000Gap handling : Appended to previous track

Used output format : User Defined EncoderSelected bitrate : 768 kBit/sQuality : HighAdd ID3 tag : NoCommand line compressor : C:\Exact Audio Copy\Flac\flac.exeAdditional command line options : -8 -V -T "ARTIST=%a" -T "TITLE=%t" -T "ALBUM=%g" -T "DATE=%y" -T "TRACKNUMBER=%n" -T "TOTALTRACKS=%x" -T "GENRE=%m" -T "ALBUMARTIST=%v" -T "ALBUM ARTIST=%v"-T "COMMENT=EAC Secure Mode, Test & Copy, AccurateRip, FLAC -8" %s

TOC of the extracted CD

Track | Start | Length | Start sector | End sector --------------------------------------------------------- 1 | 0:00.00 | 5:50.20 | 0 | 26269 2 | 5:50.20 | 5:51.45 | 26270 | 52639 3 | 11:41.65 | 7:41.70 | 52640 | 87284 4 | 19:23.60 | 5:17.02 | 87285 | 111061 5 | 24:40.62 | 3:41.08 | 111062 | 127644 6 | 28:21.70 | 5:37.17 | 127645 | 152936 7 | 33:59.12 | 4:46.10 | 152937 | 174396 8 | 38:45.22 | 6:18.08 | 174397 | 202754 9 | 45:03.30 | 5:20.70 | 202755 | 226824 10 | 50:24.25 | 5:28.22 | 226825 | 251446 11 | 55:52.47 | 7:27.43 | 251447 | 285014 12 | 63:20.15 | 4:29.72 | 285015 | 305261 13 | 67:50.12 | 5:54.53 | 305262 | 331864

Track 1

Filename E:\Flac\01 - Positive Vibration.wav

Pre-gap length 0:00:02.00

Peak level 99.6 % Track quality 100.0 % Test CRC 75B9628C Copy CRC 75B9628C Cannot be verified as accurate (confidence 2) [2F83BF55], AccurateRip returned [CD0A69C1] Copy OK

Track 2

Filename E:\Flac\02 - Punky Reggae Party.wav

Peak level 99.5 % Track quality 100.0 % Test CRC F6B9321B Copy CRC F6B9321B Cannot be verified as accurate (confidence 2) [98304742], AccurateRip returned [1C56366A] Copy OK

Track 3

Filename E:\Flac\03 - Exodus.wav

Peak level 99.6 % Track quality 100.0 % Test CRC 09360802 Copy CRC 09360802 Cannot be verified as accurate (confidence 2) [EF41A9A8], AccurateRip returned [BF2C2736] Copy OK

Track 4

Filename E:\Flac\04 - Stir It Up.wav

Peak level 99.2 % Track quality 100.0 % Test CRC F36DD31C Copy CRC F36DD31C Cannot be verified as accurate (confidence 2) [38C68A90], AccurateRip returned [3E46F800] Copy OK

Track 5

Filename E:\Flac\05 - Rat Race.wav

Peak level 99.6 % Track quality 100.0 % Test CRC 9FB605A2 Copy CRC 9FB605A2 Cannot be verified as accurate (confidence 2) [E40BF6D8], AccurateRip returned [E31B9F6A] Copy OK

Track 6

Filename E:\Flac\06 - Concrete Jungle.wav

Peak level 99.2 % Track quality 100.0 % Test CRC 1CEEAF69 Copy CRC 1CEEAF69 Cannot be verified as accurate (confidence 2) [BB0CAB4A], AccurateRip returned [4707ADAA] Copy OK

Track 7

Filename E:\Flac\07 - Kinky Reggae.wav

Peak level 99.4 % Track quality 100.0 % Test CRC EA824D26 Copy CRC EA824D26 Cannot be verified as accurate (confidence 2) [68471EAD], AccurateRip returned [2917E07E] Copy OK

Track 8

Filename E:\Flac\08 - Lively Up Yourself.wav

Peak level 99.6 % Track quality 100.0 % Test CRC B66AB0B9 Copy CRC B66AB0B9 Cannot be verified as accurate (confidence 2) [FBACB37B], AccurateRip returned [48601383] Copy OK

Track 9

Filename E:\Flac\09 - Rebel Music.wav

Peak level 99.6 % Track quality 100.0 % Test CRC 90F962A8 Copy CRC 90F962A8 Cannot be verified as accurate (confidence 2) [B1EC2C28], AccurateRip returned [7D9D8EA0] Copy OK

Track 10

Filename E:\Flac\10 - War - No More Trouble.wav

Peak level 99.5 % Track quality 100.0 % Test CRC 62AA4799 Copy CRC 62AA4799 Cannot be verified as accurate (confidence 2) [9B0E20C9], AccurateRip returned [C0C38F30] Copy OK

Track 11

Filename E:\Flac\11 - Is This Love.wav

Peak level 99.5 % Track quality 100.0 % Test CRC 489E4D79 Copy CRC 489E4D79 Cannot be verified as accurate (confidence 2) [48D43D68], AccurateRip returned [02496A37] Copy OK

Track 12

Filename E:\Flac\12 - Heathen.wav

Peak level 99.2 % Track quality 99.9 % Test CRC CEE38C58 Copy CRC CEE38C58 Cannot be verified as accurate (confidence 2) [D565D441], AccurateRip returned [2B7BAFBB] Copy OK

Track 13

Filename E:\Flac\13 - Jamming.wav

Peak level 99.6 % Track quality 100.0 % Test CRC B48CA374 Copy CRC B48CA374 Cannot be verified as accurate (confidence 2) [2EBD1236], AccurateRip returned [AFD14F63] Copy OK

No tracks could be verified as accurateYou may have a different pressing from the one(s) in the database

No errors occurred

End of status report
  
REM GENRE ReggaeREM DATE 1978REM DISCID 9411480DREM COMMENT "ExactAudioCopy v0.99pb5"PERFORMER "Bob Marley & The Wailers"TITLE "Babylon By Bus"FILE "01 - Positive Vibration.wav" WAVE TRACK 01 AUDIO TITLE "Positive Vibration" PERFORMER "Bob Marley & The Wailers" INDEX 01 00:00:00FILE "02 - Punky Reggae Party.wav" WAVE TRACK 02 AUDIO TITLE "Punky Reggae Party" PERFORMER "Bob Marley & The Wailers" INDEX 01 00:00:00FILE "03 - Exodus.wav" WAVE TRACK 03 AUDIO TITLE "Exodus" PERFORMER "Bob Marley & The Wailers" INDEX 01 00:00:00FILE "04 - Stir It Up.wav" WAVE TRACK 04 AUDIO TITLE "Stir It Up" PERFORMER "Bob Marley & The Wailers" INDEX 01 00:00:00FILE "05 - Rat Race.wav" WAVE TRACK 05 AUDIO TITLE "Rat Race" PERFORMER "Bob Marley & The Wailers" INDEX 01 00:00:00FILE "06 - Concrete Jungle.wav" WAVE TRACK 06 AUDIO TITLE "Concrete Jungle" PERFORMER "Bob Marley & The Wailers" INDEX 01 00:00:00FILE "07 - Kinky Reggae.wav" WAVE TRACK 07 AUDIO TITLE "Kinky Reggae" PERFORMER "Bob Marley & The Wailers" INDEX 01 00:00:00FILE "08 - Lively Up Yourself.wav" WAVE TRACK 08 AUDIO TITLE "Lively Up Yourself" PERFORMER "Bob Marley & The Wailers" INDEX 01 00:00:00FILE "09 - Rebel Music.wav" WAVE TRACK 09 AUDIO TITLE "Rebel Music" PERFORMER "Bob Marley & The Wailers" INDEX 01 00:00:00FILE "10 - War _ No More Trouble.wav" WAVE TRACK 10 AUDIO TITLE "War - No More Trouble" PERFORMER "Bob Marley & The Wailers" INDEX 01 00:00:00FILE "11 - Is This Love.wav" WAVE TRACK 11 AUDIO TITLE "Is This Love" PERFORMER "Bob Marley & The Wailers" INDEX 01 00:00:00FILE "12 - Heathen.wav" WAVE TRACK 12 AUDIO TITLE "Heathen" PERFORMER "Bob Marley & The Wailers" INDEX 01 00:00:00FILE "13 - Jamming.wav" WAVE TRACK 13 AUDIO TITLE "Jamming" PERFORMER "Bob Marley & The Wailers" INDEX 01 00:00:00
Треклист:

01 - So Much Trouble In The World - 4:00
02 - Zimbabwe - 3:51
03 - Top Rankin' - 3:11
04 - Babylon System - 4:22
05 - Survival - 3:54
06 - Africa Unite - 2:56
07 - One Drop - 3:52
08 - Ride Natty Ride - 3:51
09 - Ambush In The Night - 3:14
10 - Wake Up And Live - 5:01
11 - Ride Natty Ride (12" mix) (bonus track) - 2:23
  
Exact Audio Copy V0.99 prebeta 5 from 4. May 2009

EAC extraction logfile from 21. May 2011, 11:43

Bob Marley & The Wailers / Survival

Used drive : PLEXTOR CD-R PREMIUM2 Adapter: 4 ID: 1

Read mode : SecureUtilize accurate stream : YesDefeat audio cache : YesMake use of C2 pointers : No

Read offset correction : 30Overread into Lead-In and Lead-Out : YesFill up missing offset samples with silence : YesDelete leading and trailing silent blocks : NoNull samples used in CRC calculations : YesUsed interface : Native Win32 interface for Win NT & 2000Gap handling : Appended to previous track

Used output format : User Defined EncoderSelected bitrate : 768 kBit/sQuality : HighAdd ID3 tag : NoCommand line compressor : C:\Exact Audio Copy\Flac\flac.exeAdditional command line options : -8 -V -T "ARTIST=%a" -T "TITLE=%t" -T "ALBUM=%g" -T "DATE=%y" -T "TRACKNUMBER=%n" -T "TOTALTRACKS=%x" -T "GENRE=%m" -T "ALBUMARTIST=%v" -T "ALBUM ARTIST=%v"-T "COMMENT=EAC Secure Mode, Test & Copy, AccurateRip, FLAC -8" %s

TOC of the extracted CD

Track | Start | Length | Start sector | End sector --------------------------------------------------------- 1 | 0:00.00 | 4:00.25 | 0 | 18024 2 | 4:00.25 | 3:51.20 | 18025 | 35369 3 | 7:51.45 | 3:11.20 | 35370 | 49714 4 | 11:02.65 | 4:21.62 | 49715 | 69351 5 | 15:24.52 | 3:54.18 | 69352 | 86919 6 | 19:18.70 | 2:55.47 | 86920 | 100091 7 | 22:14.42 | 3:51.58 | 100092 | 117474 8 | 26:06.25 | 3:51.35 | 117475 | 134834 9 | 29:57.60 | 3:14.25 | 134835 | 149409 10 | 33:12.10 | 5:00.65 | 149410 | 171974 11 | 38:13.00 | 6:23.25 | 171975 | 200724

Track 1

Filename E:\Flac\01 - So Much Trouble In The World.wav

Pre-gap length 0:00:02.00

Peak level 99.8 % Track quality 100.0 % Test CRC C8F76543 Copy CRC C8F76543 Cannot be verified as accurate (confidence 2) [B0824CA0], AccurateRip returned [FAF8C9A8] Copy OK

Track 2

Filename E:\Flac\02 - Zimbabwe.wav

Peak level 99.8 % Track quality 100.0 % Test CRC F5D84486 Copy CRC F5D84486 Cannot be verified as accurate (confidence 2) [88705C64], AccurateRip returned [9979C2E5] Copy OK

Track 3

Filename E:\Flac\03 - Top Rankin'.wav

Peak level 99.8 % Track quality 99.9 % Test CRC 90B0A15B Copy CRC 90B0A15B Cannot be verified as accurate (confidence 2) [3D9006DB], AccurateRip returned [C505158E] Copy OK

Track 4

Filename E:\Flac\04 - Babylon System.wav

Peak level 99.8 % Track quality 100.0 % Test CRC F3C13B97 Copy CRC F3C13B97 Cannot be verified as accurate (confidence 2) [61B7B832], AccurateRip returned [EF2DAE77] Copy OK

Track 5

Filename E:\Flac\05 - Survival.wav

Peak level 99.8 % Track quality 100.0 % Test CRC CA845C64 Copy CRC CA845C64 Cannot be verified as accurate (confidence 2) [E08726A3], AccurateRip returned [32D773A3] Copy OK

Track 6

Filename E:\Flac\06 - Africa Unite.wav

Peak level 99.8 % Track quality 99.9 % Test CRC FA18AB56 Copy CRC FA18AB56 Cannot be verified as accurate (confidence 2) [8D428287], AccurateRip returned [AD621767] Copy OK

Track 7

Filename E:\Flac\07 - One Drop.wav

Peak level 99.8 % Track quality 99.9 % Test CRC 5FEAAB9E Copy CRC 5FEAAB9E Cannot be verified as accurate (confidence 2) [EDB8A14D], AccurateRip returned [478672A2] Copy OK

Track 8

Filename E:\Flac\08 - Ride Natty Ride.wav

Peak level 99.8 % Track quality 100.0 % Test CRC 746C1BEE Copy CRC 746C1BEE Cannot be verified as accurate (confidence 2) [E6053F90], AccurateRip returned [035A4C32] Copy OK

Track 9

Filename E:\Flac\09 - Ambush In The Night.wav

Peak level 99.8 % Track quality 100.0 % Test CRC D499D5AC Copy CRC D499D5AC Cannot be verified as accurate (confidence 2) [8FBD2805], AccurateRip returned [261BF1CD] Copy OK

Track 10

Filename E:\Flac\10 - Wake Up And Live.wav

Pre-gap length 0:00:01.66

Peak level 99.8 % Track quality 100.0 % Test CRC 57795EC8 Copy CRC 57795EC8 Cannot be verified as accurate (confidence 2) [B55FD4FF], AccurateRip returned [AE7E43DF] Copy OK

Track 11

Filename E:\Flac\11 - Ride Natty Ride 12' Mix (Bonus Track).wav

Pre-gap length 0:00:02.20

Peak level 99.8 % Track quality 100.0 % Test CRC 83DDFF98 Copy CRC 83DDFF98 Cannot be verified as accurate (confidence 2) [CF34CE8A], AccurateRip returned [89EE4760] Copy OK

No tracks could be verified as accurateYou may have a different pressing from the one(s) in the database

No errors occurred

End of status report
  
REM GENRE ReggaeREM DATE 1979REM DISCID A50A740BREM COMMENT "ExactAudioCopy v0.99pb5"PERFORMER "Bob Marley & The Wailers"TITLE "Survival"FILE "01 - So Much Trouble In The World.wav" WAVE TRACK 01 AUDIO TITLE "So Much Trouble In The World" PERFORMER "Bob Marley & The Wailers" INDEX 01 00:00:00FILE "02 - Zimbabwe.wav" WAVE TRACK 02 AUDIO TITLE "Zimbabwe" PERFORMER "Bob Marley & The Wailers" INDEX 01 00:00:00FILE "03 - Top Rankin'.wav" WAVE TRACK 03 AUDIO TITLE "Top Rankin'" PERFORMER "Bob Marley & The Wailers" INDEX 01 00:00:00FILE "04 - Babylon System.wav" WAVE TRACK 04 AUDIO TITLE "Babylon System" PERFORMER "Bob Marley & The Wailers" INDEX 01 00:00:00FILE "05 - Survival.wav" WAVE TRACK 05 AUDIO TITLE "Survival" PERFORMER "Bob Marley & The Wailers" INDEX 01 00:00:00FILE "06 - Africa Unite.wav" WAVE TRACK 06 AUDIO TITLE "Africa Unite" PERFORMER "Bob Marley & The Wailers" INDEX 01 00:00:00FILE "07 - One Drop.wav" WAVE TRACK 07 AUDIO TITLE "One Drop" PERFORMER "Bob Marley & The Wailers" INDEX 01 00:00:00FILE "08 - Ride Natty Ride.wav" WAVE TRACK 08 AUDIO TITLE "Ride Natty Ride" PERFORMER "Bob Marley & The Wailers" INDEX 01 00:00:00FILE "09 - Ambush In The Night.wav" WAVE TRACK 09 AUDIO TITLE "Ambush In The Night" PERFORMER "Bob Marley & The Wailers" INDEX 01 00:00:00 TRACK 10 AUDIO TITLE "Wake Up And Live" PERFORMER "Bob Marley & The Wailers" INDEX 00 03:12:50FILE "10 - Wake Up And Live.wav" WAVE INDEX 01 00:00:00 TRACK 11 AUDIO TITLE "Ride Natty Ride (12'' mix) (bonus track)" PERFORMER "Bob Marley & The Wailers" INDEX 00 04:58:50FILE "11 - Ride Natty Ride (12'' mix) (bonus track).wav" WAVE INDEX 01 00:00:00
Треклист:

01 - Coming In From The Cold - 4:31
02 - Real Situation - 3:08
03 - Bad Card - 2:50
04 - We And Dem - 3:15
05 - Work - 3:41
06 - Zion Train - 3:37
07 - Pimper's Paradise - 3:28
08 - Could You Be Loved - 3:57
09 - Forever Loving Jah - 4:02
10 - Redemption Song - 3:54
11 - Redemption Song (band version) (bonus track) - 4:51
12 - Could You Be Loved (12" mix) (bonus track) - 5:25
  
Exact Audio Copy V0.99 prebeta 5 from 4. May 2009

EAC extraction logfile from 23. May 2011, 14:57

Bob Marley & The Wailers / Uprising

Used drive : PLEXTOR CD-R PREMIUM2 Adapter: 4 ID: 1

Read mode : SecureUtilize accurate stream : YesDefeat audio cache : YesMake use of C2 pointers : No

Read offset correction : 30Overread into Lead-In and Lead-Out : YesFill up missing offset samples with silence : YesDelete leading and trailing silent blocks : NoNull samples used in CRC calculations : YesUsed interface : Native Win32 interface for Win NT & 2000Gap handling : Appended to previous track

Used output format : User Defined EncoderSelected bitrate : 768 kBit/sQuality : HighAdd ID3 tag : NoCommand line compressor : C:\Exact Audio Copy\Flac\flac.exeAdditional command line options : -8 -V -T "ARTIST=%a" -T "TITLE=%t" -T "ALBUM=%g" -T "DATE=%y" -T "TRACKNUMBER=%n" -T "TOTALTRACKS=%x" -T "GENRE=%m" -T "ALBUMARTIST=%v" -T "ALBUM ARTIST=%v" -T "COMMENT=EAC Secure Mode, Test & Copy, AccurateRip, FLAC -8" %s

TOC of the extracted CD

Track | Start | Length | Start sector | End sector --------------------------------------------------------- 1 | 0:00.00 | 4:31.05 | 0 | 20329 2 | 4:31.05 | 3:08.25 | 20330 | 34454 3 | 7:39.30 | 2:50.22 | 34455 | 47226 4 | 10:29.52 | 3:14.43 | 47227 | 61819 5 | 13:44.20 | 3:41.35 | 61820 | 78429 6 | 17:25.55 | 3:36.47 | 78430 | 94676 7 | 21:02.27 | 3:27.58 | 94677 | 110259 8 | 24:30.10 | 3:57.00 | 110260 | 128034 9 | 28:27.10 | 4:02.25 | 128035 | 146209 10 | 32:29.35 | 3:53.42 | 146210 | 163726 11 | 36:23.02 | 4:50.65 | 163727 | 185541 12 | 41:13.67 | 5:25.23 | 185542 | 209939

Track 1

Filename E:\Flac\01 - Coming In From The Cold.wav

Pre-gap length 0:00:02.00

Peak level 99.8 % Track quality 100.0 % Test CRC 3A7F76B8 Copy CRC 3A7F76B8 Cannot be verified as accurate (confidence 2) [4DDC23C9], AccurateRip returned [6CFE470E] Copy OK

Track 2

Filename E:\Flac\02 - Real Situation.wav

Peak level 99.8 % Track quality 100.0 % Test CRC 5F309C1D Copy CRC 5F309C1D Cannot be verified as accurate (confidence 2) [89A23CC3], AccurateRip returned [BB09D75A] Copy OK

Track 3

Filename E:\Flac\03 - Bad Card.wav

Peak level 99.8 % Track quality 100.0 % Test CRC 927783A4 Copy CRC 927783A4 Cannot be verified as accurate (confidence 2) [9E626D7A], AccurateRip returned [E365583F] Copy OK

Track 4

Filename E:\Flac\04 - We And Dem.wav

Peak level 99.8 % Track quality 99.9 % Test CRC D9FB57AE Copy CRC D9FB57AE Cannot be verified as accurate (confidence 2) [7539D58E], AccurateRip returned [B12ECE55] Copy OK

Track 5

Filename E:\Flac\05 - Work.wav

Peak level 99.8 % Track quality 99.9 % Test CRC A80E0AC7 Copy CRC A80E0AC7 Cannot be verified as accurate (confidence 2) [CC372A28], AccurateRip returned [A0B2ACFA] Copy OK

Track 6

Filename E:\Flac\06 - Zion Train.wav

Peak level 99.8 % Track quality 100.0 % Test CRC 71504F04 Copy CRC 71504F04 Cannot be verified as accurate (confidence 2) [CA53F498], AccurateRip returned [DB8FDD41] Copy OK

Track 7

Filename E:\Flac\07 - Pimper's Paradise.wav

Peak level 99.8 % Track quality 100.0 % Test CRC 67F245CF Copy CRC 67F245CF Cannot be verified as accurate (confidence 2) [804DACAB], AccurateRip returned [6E74F3B9] Copy OK

Track 8

Filename E:\Flac\08 - Could You Be Loved.wav

Peak level 99.8 % Track quality 100.0 % Test CRC A9B59F65 Copy CRC A9B59F65 Cannot be verified as accurate (confidence 2) [878E3658], AccurateRip returned [52BC3D8D] Copy OK

Track 9

Filename E:\Flac\09 - Forever Loving Jah.wav

Peak level 99.8 % Track quality 100.0 % Test CRC D5466ACA Copy CRC D5466ACA Cannot be verified as accurate (confidence 2) [BC96222E], AccurateRip returned [F8EA7001] Copy OK

Track 10

Filename E:\Flac\10 - Redemption Song.wav

Peak level 99.8 % Track quality 100.0 % Test CRC 8E2E7B3E Copy CRC 8E2E7B3E Cannot be verified as accurate (confidence 2) [1F86DD91], AccurateRip returned [72B4650D] Copy OK

Track 11

Filename E:\Flac\11 - Redemption Song (Band Version).wav

Pre-gap length 0:00:06.09

Peak level 100.0 % Track quality 99.9 % Test CRC 3AAA9728 Copy CRC 3AAA9728 Cannot be verified as accurate (confidence 2) [1AAD8A23], AccurateRip returned [5CCFE612] Copy OK

Track 12

Filename E:\Flac\12 - Could You Be Loved (12' Mix).wav

Pre-gap length 0:00:03.00

Peak level 99.8 % Track quality 100.0 % Test CRC B46147C5 Copy CRC B46147C5 Cannot be verified as accurate (confidence 2) [1DBBAE1D], AccurateRip returned [83649B0D] Copy OK

No tracks could be verified as accurateYou may have a different pressing from the one(s) in the database

No errors occurred

End of status report
  
REM GENRE ReggaeREM DATE 1980REM DISCID 9D0AEF0CREM COMMENT "ExactAudioCopy v0.99pb5"PERFORMER "Bob Marley & The Wailers"TITLE "Uprising"FILE "01 - Coming In From The Cold.wav" WAVE TRACK 01 AUDIO TITLE "Coming In From The Cold" PERFORMER "Bob Marley & The Wailers" INDEX 01 00:00:00FILE "02 - Real Situation.wav" WAVE TRACK 02 AUDIO TITLE "Real Situation" PERFORMER "Bob Marley & The Wailers" INDEX 01 00:00:00FILE "03 - Bad Card.wav" WAVE TRACK 03 AUDIO TITLE "Bad Card" PERFORMER "Bob Marley & The Wailers" INDEX 01 00:00:00FILE "04 - We And Dem.wav" WAVE TRACK 04 AUDIO TITLE "We And Dem" PERFORMER "Bob Marley & The Wailers" INDEX 01 00:00:00FILE "05 - Work.wav" WAVE TRACK 05 AUDIO TITLE "Work" PERFORMER "Bob Marley & The Wailers" INDEX 01 00:00:00FILE "06 - Zion Train.wav" WAVE TRACK 06 AUDIO TITLE "Zion Train" PERFORMER "Bob Marley & The Wailers" INDEX 01 00:00:00FILE "07 - Pimper's Paradise.wav" WAVE TRACK 07 AUDIO TITLE "Pimper's Paradise" PERFORMER "Bob Marley & The Wailers" INDEX 01 00:00:00FILE "08 - Could You Be Loved.wav" WAVE TRACK 08 AUDIO TITLE "Could You Be Loved" PERFORMER "Bob Marley & The Wailers" INDEX 01 00:00:00FILE "09 - Forever Loving Jah.wav" WAVE TRACK 09 AUDIO TITLE "Forever Loving Jah" PERFORMER "Bob Marley & The Wailers" INDEX 01 00:00:00FILE "10 - Redemption Song.wav" WAVE TRACK 10 AUDIO TITLE "Redemption Song" PERFORMER "Bob Marley & The Wailers" INDEX 01 00:00:00 TRACK 11 AUDIO TITLE "Redemption Song (band version) (bonus track)" PERFORMER "Bob Marley & The Wailers" INDEX 00 03:47:35FILE "11 - Redemption Song (band version) (bonus track).wav" WAVE INDEX 01 00:00:00 TRACK 12 AUDIO TITLE "Could You Be Loved (12'' mix) (bonus track)" PERFORMER "Bob Marley & The Wailers" INDEX 00 04:47:65FILE "12 - Could You Be Loved (12'' mix) (bonus track).wav" WAVE INDEX 01 00:00:00
Треклист:

01 - Chant Down Babylon - 2:36
02 - Buffalo Soldier - 4:18
03 - Jump Nyabinghi - 3:45
04 - Mix Up, Mix Up - 5:03
05 - Give Thanks & Praises - 3:17
06 - Blackman Redemption - 3:33
07 - Trench Town - 3:13
08 - Stiff Necked Fools - 3:26
09 - I Know - 3:21
10 - Rastaman Live Up! - 5:27
11 - Buffalo Soldier (12'' mix) (bonus track) - 7:37
  
Exact Audio Copy V0.99 prebeta 5 from 4. May 2009

EAC extraction logfile from 24. May 2011, 21:11

Bob Marley & The Wailers / Confrontation

Used drive : PLEXTOR CD-R PREMIUM2 Adapter: 4 ID: 1

Read mode : SecureUtilize accurate stream : YesDefeat audio cache : YesMake use of C2 pointers : No

Read offset correction : 30Overread into Lead-In and Lead-Out : YesFill up missing offset samples with silence : YesDelete leading and trailing silent blocks : NoNull samples used in CRC calculations : YesUsed interface : Native Win32 interface for Win NT & 2000Gap handling : Appended to previous track

Used output format : User Defined EncoderSelected bitrate : 768 kBit/sQuality : HighAdd ID3 tag : NoCommand line compressor : C:\Exact Audio Copy\Flac\flac.exeAdditional command line options : -8 -V -T "ARTIST=%a" -T "TITLE=%t" -T "ALBUM=%g" -T "DATE=%y" -T "TRACKNUMBER=%n" -T "TOTALTRACKS=%x" -T "GENRE=%m" -T "ALBUMARTIST=%v" -T "ALBUM ARTIST=%v"-T "COMMENT=EAC Secure Mode, Test & Copy, AccurateRip, FLAC -8" %s

TOC of the extracted CD

Track | Start | Length | Start sector | End sector --------------------------------------------------------- 1 | 0:00.00 | 2:36.37 | 0 | 11736 2 | 2:36.37 | 4:17.40 | 11737 | 31051 3 | 6:54.02 | 3:44.55 | 31052 | 47906 4 | 10:38.57 | 5:02.55 | 47907 | 70611 5 | 15:41.37 | 3:16.45 | 70612 | 85356 6 | 18:58.07 | 3:33.33 | 85357 | 101364 7 | 22:31.40 | 3:12.45 | 101365 | 115809 8 | 25:44.10 | 3:25.52 | 115810 | 131236 9 | 29:09.62 | 3:21.00 | 131237 | 146311 10 | 32:30.62 | 5:27.03 | 146312 | 170839 11 | 37:57.65 | 7:37.15 | 170840 | 205129

Track 1

Filename E:\Flac\01 - Chant Down Babylon.wav

Pre-gap length 0:00:02.00

Peak level 99.8 % Track quality 100.0 % Test CRC 007483B9 Copy CRC 007483B9 Cannot be verified as accurate (confidence 3) [7AF8B16A], AccurateRip returned [6F6F79AB] Copy OK

Track 2

Filename E:\Flac\02 - Buffalo Soldier.wav

Peak level 99.8 % Track quality 100.0 % Test CRC 3F80E8EB Copy CRC 3F80E8EB Cannot be verified as accurate (confidence 3) [A79E6B4F], AccurateRip returned [0395BA98] Copy OK

Track 3

Filename E:\Flac\03 - Jump Nyabinghi.wav

Pre-gap length 0:00:01.00

Peak level 99.8 % Track quality 100.0 % Test CRC 943A3801 Copy CRC 943A3801 Cannot be verified as accurate (confidence 3) [7410EA26], AccurateRip returned [79C93BB7] Copy OK

Track 4

Filename E:\Flac\04 - Mix Up, Mix Up.wav

Peak level 99.8 % Track quality 100.0 % Test CRC 562D7500 Copy CRC 562D7500 Cannot be verified as accurate (confidence 3) [C120A43E], AccurateRip returned [3EFDBD8D] Copy OK

Track 5

Filename E:\Flac\05 - Give Thanks And Praises.wav

Pre-gap length 0:00:01.06

Peak level 99.8 % Track quality 100.0 % Test CRC 5E97E8E1 Copy CRC 5E97E8E1 Cannot be verified as accurate (confidence 3) [6D90AFDD], AccurateRip returned [A88F2288] Copy OK

Track 6

Filename E:\Flac\06 - Blackman Redemption.wav

Pre-gap length 0:00:02.00

Peak level 99.8 % Track quality 100.0 % Test CRC D374CC13 Copy CRC D374CC13 Cannot be verified as accurate (confidence 3) [1D217FA0], AccurateRip returned [879F9B34] Copy OK

Track 7

Filename E:\Flac\07 - Trench Town.wav

Peak level 99.8 % Track quality 99.9 % Test CRC B45B29A5 Copy CRC B45B29A5 Cannot be verified as accurate (confidence 3) [5634A908], AccurateRip returned [D4064C61] Copy OK

Track 8

Filename E:\Flac\08 - Stiff Necked Fools.wav

Peak level 99.8 % Track quality 100.0 % Test CRC 3D90B7D8 Copy CRC 3D90B7D8 Cannot be verified as accurate (confidence 3) [8719A5F5], AccurateRip returned [14B63962] Copy OK

Track 9

Filename E:\Flac\09 - I Know.wav

Peak level 99.8 % Track quality 100.0 % Test CRC 7CE86730 Copy CRC 7CE86730 Cannot be verified as accurate (confidence 3) [21879760], AccurateRip returned [460F549C] Copy OK

Track 10

Filename E:\Flac\10 - Rastaman Live Up!.wav

Pre-gap length 0:00:01.82

Peak level 99.8 % Track quality 100.0 % Test CRC 1860250B Copy CRC 1860250B Cannot be verified as accurate (confidence 3) [6EDDBC0D], AccurateRip returned [25502C46] Copy OK

Track 11

Filename E:\Flac\11 - Buffalo Soldier [Bonus Track].wav

Peak level 99.8 % Track quality 100.0 % Test CRC 1EAE382A Copy CRC 1EAE382A Cannot be verified as accurate (confidence 2) [BB8BAC42], AccurateRip returned [4DFD084B] Copy OK

No tracks could be verified as accurateYou may have a different pressing from the one(s) in the database

No errors occurred

End of status report
  
REM GENRE ReggaeREM DATE 1983REM DISCID 8A0AAF0BREM COMMENT "ExactAudioCopy v0.99pb5"PERFORMER "Bob Marley & The Wailers"TITLE "Confrontation "FILE "01 - Chant Down Babylon.wav" WAVE TRACK 01 AUDIO TITLE "Chant Down Babylon" PERFORMER "Bob Marley & The Wailers" INDEX 01 00:00:00FILE "02 - Buffalo Soldier.wav" WAVE TRACK 02 AUDIO TITLE "Buffalo Soldier" PERFORMER "Bob Marley & The Wailers" INDEX 01 00:00:00 TRACK 03 AUDIO TITLE "Jump Nyabinghi" PERFORMER "Bob Marley & The Wailers" INDEX 00 04:16:40FILE "03 - Jump Nyabinghi.wav" WAVE INDEX 01 00:00:00FILE "04 - Mix Up, Mix Up.wav" WAVE TRACK 04 AUDIO TITLE "Mix Up, Mix Up" PERFORMER "Bob Marley & The Wailers" INDEX 01 00:00:00 TRACK 05 AUDIO TITLE "Give Thanks & Praises" PERFORMER "Bob Marley & The Wailers" INDEX 00 05:01:50FILE "05 - Give Thanks & Praises.wav" WAVE INDEX 01 00:00:00 TRACK 06 AUDIO TITLE "Blackman Redemption" PERFORMER "Bob Marley & The Wailers" INDEX 00 03:14:45FILE "06 - Blackman Redemption.wav" WAVE INDEX 01 00:00:00FILE "07 - Trench Town.wav" WAVE TRACK 07 AUDIO TITLE "Trench Town" PERFORMER "Bob Marley & The Wailers" INDEX 01 00:00:00FILE "08 - Stiff Necked Fools.wav" WAVE TRACK 08 AUDIO TITLE "Stiff Necked Fools" PERFORMER "Bob Marley & The Wailers" INDEX 01 00:00:00FILE "09 - I Know.wav" WAVE TRACK 09 AUDIO TITLE "I Know" PERFORMER "Bob Marley & The Wailers" INDEX 01 00:00:00 TRACK 10 AUDIO TITLE "Rastaman Live Up!" PERFORMER "Bob Marley & The Wailers" INDEX 00 03:19:13FILE "10 - Rastaman Live Up!.wav" WAVE INDEX 01 00:00:00FILE "11 - Buffalo Soldier (12'' mix) (bonus track).wav" WAVE TRACK 11 AUDIO TITLE "Buffalo Soldier (12'' mix) (bonus track)" PERFORMER "Bob Marley & The Wailers" INDEX 01 00:00:00


Трекер:  [ 27-Апр-2012 13:51 ]

  

Скачать .torrent

Размер .torrent файла 37 KB


Размер: 3.53 GB
Хэш (hash) релиза: 2e295fcd40d3ad8a9061947e2bfdb1c53feff2e2

africa

спасибо автору ))

Хотите добавить комментарий к записи скачать торрент Bob Marley & The Wailers - Catch A Fire Box Set

!Обратная связь