La Balada De Lefty Brown BluRayRip AC3 5.1 | xs rar 8 84mb | Призраки / Паранормальщина / Ghosted [01x01-15 из 16] (2017) WEBRip 1080p | IdeaFilm

Скачать через торрент музыку Joe Gibbs - African Dub: Chapter Five - 1984, FLAC бесплатно без регистрации torrent

Статистика раздачи
Размер:  146 MB   |    Зарегистрирован:  6 лет 2 месяца   |    .torrent скачан:  31 раз   |   
Раздают:  1  
   
загрузка...
 
Автор Сообщение

_N_

avatar _N_


Joe Gibbs / African Dub Chapter 5

Жанр: dub
Год издания диска: 1984
Издатель (лейбл): Greensleeves
Номер по каталогу: JGMLP 017
Страна: jamaica
Аудиокодек: FLAC (*.flac)
Тип рипа: tracks+.cue
Битрейт аудио: lossless
Продолжительность: 32m
Источник (релизер): wata
Наличие сканов в содержимом раздачи: нет
Треклист:
01. The Day After
02. Long Distance Affair
03. Full Moon Ikky
04. Ladies Night Out
05. Chapter Five
06. Bad Verdict
07. Military Intervention
08. Campus Flash Back
  
Exact Audio Copy V0.99 prebeta 5 from 4. May 2009

EAC extraction logfile from 4. March 2010, 20:13

Joe Gibbs / African Dub Chapter 5

Used drive : Optiarc DVD RW AD-7590S Adapter: 2 ID: 0

Read mode : SecureUtilize accurate stream : YesDefeat audio cache : YesMake use of C2 pointers : No

Read offset correction : 48Overread into Lead-In and Lead-Out : NoFill up missing offset samples with silence : YesDelete leading and trailing silent blocks : NoNull samples used in CRC calculations : YesUsed interface : Installed external ASPI interfaceGap handling : Appended to previous track

Used output format : User Defined EncoderSelected bitrate : 768 kBit/sQuality : HighAdd ID3 tag : NoCommand line compressor : C:\Program Files\Exact Audio Copy\flac.exeAdditional command line options : -6 -V -T "ARTIST=%a" -T "TITLE=%t" -T "ALBUM=%g" -T "DATE=%y" -T "TRACKNUMBER=%n" -T "GENRE=%m" -T "COMMENT=%e" %s -o %d

TOC of the extracted CD

Track | Start | Length | Start sector | End sector --------------------------------------------------------- 1 | 0:00.00 | 4:35.09 | 0 | 20633 2 | 4:35.09 | 3:38.42 | 20634 | 37025 3 | 8:13.51 | 4:41.08 | 37026 | 58108 4 | 12:54.59 | 4:00.56 | 58109 | 76164 5 | 16:55.40 | 4:05.08 | 76165 | 94547 6 | 21:00.48 | 4:06.63 | 94548 | 113060 7 | 25:07.36 | 4:45.43 | 113061 | 134478 8 | 29:53.04 | 2:27.59 | 134479 | 145562

Track 1

Filename C:\Addis Gugsa love your HDD\01 - The Day After.wav

Pre-gap length 0:00:02.00

Peak level 98.8 % Track quality 100.0 % Test CRC 998BEC83 Copy CRC 998BEC83 Accurately ripped (confidence 1) [09B091B0] Copy OK

Track 2

Filename C:\Addis Gugsa love your HDD\02 - Long Distance Affair.wav

Pre-gap length 0:00:02.00

Peak level 98.8 % Track quality 100.0 % Test CRC A4AB7A94 Copy CRC A4AB7A94 Accurately ripped (confidence 1) [1117D5F3] Copy OK

Track 3

Filename C:\Addis Gugsa love your HDD\03 - Full Moon Ikky.wav

Pre-gap length 0:00:02.00

Peak level 98.8 % Track quality 100.0 % Test CRC 532C5E4C Copy CRC 532C5E4C Accurately ripped (confidence 1) [82B8F5A0] Copy OK

Track 4

Filename C:\Addis Gugsa love your HDD\04 - Ladies Night Out.wav

Pre-gap length 0:00:02.00

Peak level 98.8 % Track quality 99.9 % Test CRC 40CE96C1 Copy CRC 40CE96C1 Accurately ripped (confidence 1) [304D64A2] Copy OK

Track 5

Filename C:\Addis Gugsa love your HDD\05 - Chapter Five.wav

Pre-gap length 0:00:02.00

Peak level 98.8 % Track quality 100.0 % Test CRC 55AAEA42 Copy CRC 55AAEA42 Accurately ripped (confidence 1) [2A0719A8] Copy OK

Track 6

Filename C:\Addis Gugsa love your HDD\06 - Bad Verdict.wav

Pre-gap length 0:00:02.00

Peak level 98.8 % Track quality 100.0 % Test CRC CFEBB820 Copy CRC CFEBB820 Accurately ripped (confidence 1) [497333F8] Copy OK

Track 7

Filename C:\Addis Gugsa love your HDD\07 - Military Intervention.wav

Pre-gap length 0:00:02.00

Peak level 98.8 % Track quality 99.9 % Test CRC 5656CE65 Copy CRC 5656CE65 Accurately ripped (confidence 1) [C639C2D0] Copy OK

Track 8

Filename C:\Addis Gugsa love your HDD\08 - Campus Flash Back.wav

Pre-gap length 0:00:02.00

Peak level 98.8 % Track quality 99.9 % Test CRC 762EC0E6 Copy CRC 762EC0E6 Accurately ripped (confidence 1) [52C006CD] Copy OK

All tracks accurately ripped

No errors occurred

End of status report
  
REM GENRE ReggaeREM DATE 1984REM DISCID 71079408REM COMMENT "ExactAudioCopy v0.99pb5"PERFORMER "Joe Gibbs"TITLE "African Dub Chapter 5"FILE "01 - The Day After.wav" WAVE TRACK 01 AUDIO TITLE "The Day After" PERFORMER "Joe Gibbs" INDEX 01 00:00:00 TRACK 02 AUDIO TITLE "Long Distance Affair" PERFORMER "Joe Gibbs" INDEX 00 04:33:09FILE "02 - Long Distance Affair.wav" WAVE INDEX 01 00:00:00 TRACK 03 AUDIO TITLE "Full Moon Ikky" PERFORMER "Joe Gibbs" INDEX 00 03:36:42FILE "03 - Full Moon Ikky.wav" WAVE INDEX 01 00:00:00 TRACK 04 AUDIO TITLE "Ladies Night Out" PERFORMER "Joe Gibbs" INDEX 00 04:39:08FILE "04 - Ladies Night Out.wav" WAVE INDEX 01 00:00:00 TRACK 05 AUDIO TITLE "Chapter Five" PERFORMER "Joe Gibbs" INDEX 00 03:58:56FILE "05 - Chapter Five.wav" WAVE INDEX 01 00:00:00 TRACK 06 AUDIO TITLE "Bad Verdict" PERFORMER "Joe Gibbs" INDEX 00 04:03:08FILE "06 - Bad Verdict.wav" WAVE INDEX 01 00:00:00 TRACK 07 AUDIO TITLE "Military Intervention" PERFORMER "Joe Gibbs" INDEX 00 04:04:63FILE "07 - Military Intervention.wav" WAVE INDEX 01 00:00:00 TRACK 08 AUDIO TITLE "Campus Flash Back" PERFORMER "Joe Gibbs" INDEX 00 04:43:43FILE "08 - Campus Flash Back.wav" WAVE INDEX 01 00:00:00


Трекер:  [ 27-Апр-2012 13:51 ]

  

Скачать .torrent

Размер .torrent файла 12 KB


Размер: 146 MB
Хэш (hash) релиза: 3a3334d5e815407be4bc321d88c4ac704a3d4539

Еще никто не оставлял запись к записи скачать торрент Joe Gibbs - African Dub: Chapter Five - 1984, FLAC . Будь первым!

!Обратная связь