- Our Cartoon President S01E15 HDTV x264-aAF | Aap Ke Aa Jane Se | Schlossseiten – Sommer 2018

Скачать через торрент музыку Creation Rebel - Dub From Creation {2004 reissue} - 1978, FLAC бесплатно без регистрации torrent

Статистика раздачи
Размер:  255 MB   |    Зарегистрирован:  6 лет 3 месяца   |    .torrent скачан:  34 раза   |   
Раздают:  1  
   
загрузка...
 
Автор Сообщение

_N_

avatar _N_


Creation Rebel / Dub From Creation (1978)

Жанр: Dub
Страна-производитель диска: Japan
Год издания: 2004
Издатель (лейбл): Beat Records
Номер по каталогу: BRC89
Аудиокодек: FLAC (*.flac)
Тип рипа: image+.cue
Битрейт аудио: lossless
Продолжительность: 43:35
Источник (релизер): cd
Наличие сканов в содержимом раздачи: нет
Треклист:
01 Dub From Creation (4:11)
02 Basic Principals (4:07)
03 Rebel Rouser (3:03)
04 Creation Vibration (2:58)
05 Creation In A Iration (2:55)
06 Dub Fusion (4:08)
07 Mirage (3:33)
08 Liberation (3:01)
09 Rising Star (4:21)
10 Vision Of Creation (4:55)
11 Frontline Speech (Feat. Prince Far I) (3:15)
12 Frontline Dub (3:09)
  
Exact Audio Copy V1.0 beta 3 from 29. August 2011

EAC extraction logfile from 3. April 2012, 22:45

Creation Rebel / Dub From Creation

Used drive : Optiarc BD RW BD-5300S Adapter: 1 ID: 1

Read mode : SecureUtilize accurate stream : YesDefeat audio cache : YesMake use of C2 pointers : No

Read offset correction : 6Overread into Lead-In and Lead-Out : NoFill up missing offset samples with silence : YesDelete leading and trailing silent blocks : NoNull samples used in CRC calculations : YesUsed interface : Installed external ASPI interface

Used output format : User Defined EncoderSelected bitrate : 1024 kBit/sQuality : HighAdd ID3 tag : NoCommand line compressor : C:\Program Files\Exact Audio Copy\Flac\flac.exeAdditional command line options : -8 -V %source%

TOC of the extracted CD

Track | Start | Length | Start sector | End sector --------------------------------------------------------- 1 | 0:00.00 | 4:10.66 | 0 | 18815 2 | 4:10.66 | 4:06.38 | 18816 | 37303 3 | 8:17.29 | 3:02.72 | 37304 | 51025 4 | 11:20.26 | 2:57.56 | 51026 | 64356 5 | 14:18.07 | 2:55.00 | 64357 | 77481 6 | 17:13.07 | 4:08.26 | 77482 | 96107 7 | 21:21.33 | 3:32.73 | 96108 | 112080 8 | 24:54.31 | 3:00.67 | 112081 | 125647 9 | 27:55.23 | 4:20.67 | 125648 | 145214 10 | 32:16.15 | 4:55.06 | 145215 | 167345 11 | 37:11.21 | 3:15.06 | 167346 | 181976 12 | 40:26.27 | 3:08.72 | 181977 | 196148

Range status and errors

Selected range

Filename J:\temp\nnm\Creation Rebel - Dub From Creation.wav

Peak level 99.5 % Extraction speed 6.6 X Range quality 100.0 % Test CRC 21883409 Copy CRC 21883409 Copy OK

No errors occurred

AccurateRip summary

Track 1 accurately ripped (confidence 1) [B3770FB6] (AR v1)Track 2 accurately ripped (confidence 1) [9D602495] (AR v1)Track 3 accurately ripped (confidence 1) [3F49F7BF] (AR v1)Track 4 accurately ripped (confidence 1) [1F5184BD] (AR v1)Track 5 accurately ripped (confidence 1) [B94978C7] (AR v1)Track 6 accurately ripped (confidence 1) [C8424048] (AR v1)Track 7 accurately ripped (confidence 1) [D8DB4E1F] (AR v1)Track 8 accurately ripped (confidence 1) [2E1F032D] (AR v1)Track 9 accurately ripped (confidence 1) [986C5464] (AR v1)Track 10 accurately ripped (confidence 1) [56048A65] (AR v1)Track 11 accurately ripped (confidence 1) [33AEF152] (AR v1)Track 12 accurately ripped (confidence 1) [E4F6A4C5] (AR v1)

All tracks accurately ripped

End of status report

---- CUETools DB Plugin V2.1.3

[CTDB TOCID: DAOOfe7O3RxQkhOJ6KGwtU_D2dI-] disk not present in database, Submit result: DAOOfe7O3RxQkhOJ6KGwtU_D2dI- has been uploaded

==== Log checksum 25772BD918E58AD000BCDDAD8519640062E3EAE5B2351BF9FC46CFB76C01F4E9 ====


Трекер:  [ 27-Апр-2012 13:53 ]

  

Скачать .torrent

Размер .torrent файла 20 KB


Размер: 255 MB
Хэш (hash) релиза: ad116e68ee50cac6d40d5180b00b49ab3cece935

Еще никто не оставлял запись к записи скачать торрент Creation Rebel - Dub From Creation {2004 reissue} - 1978, FLAC . Будь первым!

!Обратная связь