Templates | Instrumental Collection Music | BD Boku no Hero Academia Season 2 Subtitle Indonesia

Скачать через торрент музыку Bob Marley and the Wailers - Natural Mystic: The Legend Lives On - 1995, FLAC бесплатно без регистрации torrent

Статистика раздачи
Размер:  342 MB   |    Зарегистрирован:  6 лет 2 месяца   |    .torrent скачан:  58 раз   |   
Раздают:  1  
   
загрузка...
 
Автор Сообщение

_N_

avatar _N_


Bob Marley and the Wailers / Natural Mystic: The Legend Lives On

Жанр: Reggae
Страна-производитель диска: France
Год издания: 1995
Издатель (лейбл): Island Records
Номер по каталогу: BMWCD 2/524 103-2
Страна: Jamaica
Аудиокодек: FLAC (*.flac)
Тип рипа: tracks+.cue
Битрейт аудио: lossless
Продолжительность: 00:55:03
Источник (релизер): вата, tack10001
Наличие сканов в содержимом раздачи: нет
Треклист:
01 - Natural Mystic
02 - Easy Skanking
03 - Iron Lion Zion
04 - Crazy Baldheads
05 - So Much Trouble in the World
06 - War
07 - Africa Unite
08 - Trenchtown Rock [live]
09 - Keep on Movin'
10 - Sun Is Shining
11 - Who the Cap Fit
12 - One Drop
13 - Roots, Rock, Reggae
14 - Pimpers Paradise
15 - Time Will Tell
  
Exact Audio Copy V0.99 prebeta 3 from 28. July 2007

EAC extraction logfile from 14. April 2008, 13:33

Bob Marley & the Wailers / Natural Mystic: The Legend Lives On

Used drive : TSSTcorpCD/DVDW SH-S182M Adapter: 1 ID: 0

Read mode : SecureUtilize accurate stream : YesDefeat audio cache : YesMake use of C2 pointers : No

Read offset correction : 6Overread into Lead-In and Lead-Out : NoFill up missing offset samples with silence : YesDelete leading and trailing silent blocks : NoNull samples used in CRC calculations : YesUsed interface : Installed external ASPI interfaceGap handling : Appended to previous track

Used output format : User Defined EncoderSelected bitrate : 192 kBit/sQuality : HighAdd ID3 tag : NoCommand line compressor : C:\Program Files\Exact Audio Copy\flac.exeAdditional command line options : -8 -A tukey(0.25) -A gauss(0.1875) -b 4096 -V -T "artist=%a" -T "title=%t" -T "album=%g" -T "date=%y" -T "tracknumber=%n" -T "genre=%m" %s --sector-align

TOC of the extracted CD

Track | Start | Length | Start sector | End sector --------------------------------------------------------- 1 | 0:00.32 | 3:26.20 | 32 | 15501 2 | 3:26.52 | 2:55.38 | 15502 | 28664 3 | 6:22.15 | 3:13.37 | 28665 | 43176 4 | 9:35.52 | 3:22.60 | 43177 | 58386 5 | 12:58.37 | 3:57.25 | 58387 | 76186 6 | 16:55.62 | 3:31.25 | 76187 | 92036 7 | 20:27.12 | 2:53.38 | 92037 | 105049 8 | 23:20.50 | 4:10.45 | 105050 | 123844 9 | 27:31.20 | 4:20.67 | 123845 | 143411 10 | 31:52.12 | 4:35.33 | 143412 | 164069 11 | 36:27.45 | 4:16.70 | 164070 | 183339 12 | 40:44.40 | 3:51.52 | 183340 | 200716 13 | 44:36.17 | 3:31.30 | 200717 | 216571 14 | 48:07.47 | 3:26.48 | 216572 | 232069 15 | 51:34.20 | 3:29.05 | 232070 | 247749

Track 1

Filename C:\Documents and Settings\Owner\My Documents\New Folder (3)\01 - Bob Marley & the Wailers - Natural Mystic.wav

Pre-gap length 0:00:02.42

Peak level 96.6 % Track quality 100.0 % Test CRC 539DEACE Copy CRC 539DEACE Accurately ripped (confidence 9) [CCF5DC09] Copy OK

Track 2

Filename C:\Documents and Settings\Owner\My Documents\New Folder (3)\02 - Bob Marley & the Wailers - Easy Skanking.wav

Peak level 91.2 % Track quality 100.0 % Test CRC D776823E Copy CRC D776823E Accurately ripped (confidence 8) [062A07BE] Copy OK

Track 3

Filename C:\Documents and Settings\Owner\My Documents\New Folder (3)\03 - Bob Marley & the Wailers - Iron Lion Zion.wav

Pre-gap length 0:00:00.01

Peak level 96.6 % Track quality 100.0 % Test CRC D56055DC Copy CRC D56055DC Accurately ripped (confidence 8) [00341982] Copy OK

Track 4

Filename C:\Documents and Settings\Owner\My Documents\New Folder (3)\04 - Bob Marley & the Wailers - Crazy Baldheads.wav

Pre-gap length 0:00:00.01

Peak level 97.7 % Track quality 100.0 % Test CRC F24E3C2C Copy CRC F24E3C2C Accurately ripped (confidence 8) [2D47AD2A] Copy OK

Track 5

Filename C:\Documents and Settings\Owner\My Documents\New Folder (3)\05 - Bob Marley & the Wailers - So Much Trouble in the World.wav

Pre-gap length 0:00:00.01

Peak level 96.6 % Track quality 100.0 % Test CRC F64A2D88 Copy CRC F64A2D88 Accurately ripped (confidence 8) [7C9C7CDA] Copy OK

Track 6

Filename C:\Documents and Settings\Owner\My Documents\New Folder (3)\06 - Bob Marley & the Wailers - War.wav

Pre-gap length 0:00:00.01

Peak level 97.7 % Track quality 100.0 % Test CRC 6E1D3968 Copy CRC 6E1D3968 Accurately ripped (confidence 8) [DFCD2B7E] Copy OK

Track 7

Filename C:\Documents and Settings\Owner\My Documents\New Folder (3)\07 - Bob Marley & the Wailers - Africa Unite.wav

Pre-gap length 0:00:00.01

Peak level 96.6 % Track quality 100.0 % Test CRC D8D0C912 Copy CRC D8D0C912 Accurately ripped (confidence 8) [29DE26A0] Copy OK

Track 8

Filename C:\Documents and Settings\Owner\My Documents\New Folder (3)\08 - Bob Marley & the Wailers - Trenchtown Rock [live].wav

Pre-gap length 0:00:00.01

Peak level 97.3 % Track quality 100.0 % Test CRC CDBAECD9 Copy CRC CDBAECD9 Accurately ripped (confidence 8) [8522D686] Copy OK

Track 9

Filename C:\Documents and Settings\Owner\My Documents\New Folder (3)\09 - Bob Marley & the Wailers - Keep on Movin'.wav

Pre-gap length 0:00:00.01

Peak level 96.6 % Track quality 100.0 % Test CRC 11EDA27B Copy CRC 11EDA27B Accurately ripped (confidence 8) [0BA16A2B] Copy OK

Track 10

Filename C:\Documents and Settings\Owner\My Documents\New Folder (3)\10 - Bob Marley & the Wailers - Sun Is Shining.wav

Pre-gap length 0:00:00.01

Peak level 91.2 % Track quality 100.0 % Test CRC FCD093FE Copy CRC FCD093FE Accurately ripped (confidence 8) [1D66E846] Copy OK

Track 11

Filename C:\Documents and Settings\Owner\My Documents\New Folder (3)\11 - Bob Marley & the Wailers - Who the Cap Fit.wav

Peak level 97.7 % Track quality 100.0 % Test CRC DDF0E686 Copy CRC DDF0E686 Accurately ripped (confidence 8) [52513E1A] Copy OK

Track 12

Filename C:\Documents and Settings\Owner\My Documents\New Folder (3)\12 - Bob Marley & the Wailers - One Drop.wav

Pre-gap length 0:00:00.01

Peak level 97.7 % Track quality 100.0 % Test CRC 71BA5458 Copy CRC 71BA5458 Accurately ripped (confidence 6) [442170B4] Copy OK

Track 13

Filename C:\Documents and Settings\Owner\My Documents\New Folder (3)\13 - Bob Marley & the Wailers - Roots, Rock, Reggae.wav

Pre-gap length 0:00:00.01

Peak level 97.7 % Track quality 100.0 % Test CRC 9E55D25A Copy CRC 9E55D25A Accurately ripped (confidence 7) [16189B10] Copy OK

Track 14

Filename C:\Documents and Settings\Owner\My Documents\New Folder (3)\14 - Bob Marley & the Wailers - Pimpers Paradise.wav

Pre-gap length 0:00:00.01

Peak level 96.6 % Track quality 100.0 % Test CRC F6C737CA Copy CRC F6C737CA Accurately ripped (confidence 7) [4087A4F4] Copy OK

Track 15

Filename C:\Documents and Settings\Owner\My Documents\New Folder (3)\15 - Bob Marley & the Wailers - Time Will Tell.wav

Pre-gap length 0:00:00.01

Peak level 96.6 % Track quality 99.8 % Test CRC 224A424D Copy CRC 224A424D Accurately ripped (confidence 7) [450C0AB7] Copy OK

All tracks accurately ripped

No errors occurred

End of status report
  
REM GENRE ReggaeREM DATE 1995REM DISCID E10CE70FREM COMMENT "ExactAudioCopy v0.99pb3"PERFORMER "Bob Marley & the Wailers"TITLE "Natural Mystic: The Legend Lives On"FILE "01 - Bob Marley & the Wailers - Natural Mystic.wav" WAVE TRACK 01 AUDIO TITLE "Natural Mystic" PERFORMER "Bob Marley & the Wailers" PREGAP 00:00:32 INDEX 01 00:00:00FILE "02 - Bob Marley & the Wailers - Easy Skanking.wav" WAVE TRACK 02 AUDIO TITLE "Easy Skanking" PERFORMER "Bob Marley & the Wailers" INDEX 01 00:00:00 TRACK 03 AUDIO TITLE "Iron Lion Zion" PERFORMER "Bob Marley & the Wailers" INDEX 00 02:55:37FILE "03 - Bob Marley & the Wailers - Iron Lion Zion.wav" WAVE INDEX 01 00:00:00 TRACK 04 AUDIO TITLE "Crazy Baldheads" PERFORMER "Bob Marley & the Wailers" INDEX 00 03:13:36FILE "04 - Bob Marley & the Wailers - Crazy Baldheads.wav" WAVE INDEX 01 00:00:00 TRACK 05 AUDIO TITLE "So Much Trouble in the World" PERFORMER "Bob Marley & the Wailers" INDEX 00 03:22:59FILE "05 - Bob Marley & the Wailers - So Much Trouble in the World.wav" WAVE INDEX 01 00:00:00 TRACK 06 AUDIO TITLE "War" PERFORMER "Bob Marley & the Wailers" INDEX 00 03:57:24FILE "06 - Bob Marley & the Wailers - War.wav" WAVE INDEX 01 00:00:00 TRACK 07 AUDIO TITLE "Africa Unite" PERFORMER "Bob Marley & the Wailers" INDEX 00 03:31:24FILE "07 - Bob Marley & the Wailers - Africa Unite.wav" WAVE INDEX 01 00:00:00 TRACK 08 AUDIO TITLE "Trenchtown Rock [live]" PERFORMER "Bob Marley & the Wailers" INDEX 00 02:53:37FILE "08 - Bob Marley & the Wailers - Trenchtown Rock [live].wav" WAVE INDEX 01 00:00:00 TRACK 09 AUDIO TITLE "Keep on Movin'" PERFORMER "Bob Marley & the Wailers" INDEX 00 04:10:44FILE "09 - Bob Marley & the Wailers - Keep on Movin'.wav" WAVE INDEX 01 00:00:00 TRACK 10 AUDIO TITLE "Sun Is Shining" PERFORMER "Bob Marley & the Wailers" INDEX 00 04:20:66FILE "10 - Bob Marley & the Wailers - Sun Is Shining.wav" WAVE INDEX 01 00:00:00FILE "11 - Bob Marley & the Wailers - Who the Cap Fit.wav" WAVE TRACK 11 AUDIO TITLE "Who the Cap Fit" PERFORMER "Bob Marley & the Wailers" INDEX 01 00:00:00 TRACK 12 AUDIO TITLE "One Drop" PERFORMER "Bob Marley & the Wailers" INDEX 00 04:16:69FILE "12 - Bob Marley & the Wailers - One Drop.wav" WAVE INDEX 01 00:00:00 TRACK 13 AUDIO TITLE "Roots, Rock, Reggae" PERFORMER "Bob Marley & the Wailers" INDEX 00 03:51:51FILE "13 - Bob Marley & the Wailers - Roots, Rock, Reggae.wav" WAVE INDEX 01 00:00:00 TRACK 14 AUDIO TITLE "Pimpers Paradise" PERFORMER "Bob Marley & the Wailers" INDEX 00 03:31:29FILE "14 - Bob Marley & the Wailers - Pimpers Paradise.wav" WAVE INDEX 01 00:00:00 TRACK 15 AUDIO TITLE "Time Will Tell" PERFORMER "Bob Marley & the Wailers" INDEX 00 03:26:47FILE "15 - Bob Marley & the Wailers - Time Will Tell.wav" WAVE INDEX 01 00:00:00


Трекер:  [ 27-Апр-2012 13:54 ]

  

Скачать .torrent

Размер .torrent файла 15 KB


Размер: 342 MB
Хэш (hash) релиза: 91ae043980ab7ccdd7c4033c1d4def095064e49e

Еще никто не оставлял запись к записи скачать торрент Bob Marley and the Wailers - Natural Mystic: The Legend Lives On - 1995, FLAC . Будь первым!

!Обратная связь