Télécharger | 1x11 Gwitsongmal | тег Ангелы и Демоны

Скачать через торрент музыку Bob Marley & The Wailers - The Best of the Early Years - 2001, FLAC бесплатно без регистрации torrent

Статистика раздачи
Размер:  261 MB   |    Зарегистрирован:  6 лет 2 месяца   |    .torrent скачан:  62 раза   |   
Раздают:  1  
   
загрузка...
 
Автор Сообщение

_N_

avatar _N_


Bob Marley & The Wailers / The Best of the Early Years

Жанр: Reggae
Год издания: 2001
Издатель (лейбл): Sanctuary Records
Номер по каталогу: BG2 80251
Страна: Jamaica
Аудиокодек: FLAC (*.flac)
Тип рипа: tracks+.cue
Битрейт аудио: lossless
Продолжительность: 00:59:49
Источник (релизер): вата, blacksilhouettes
Наличие сканов в содержимом раздачи: нет
Треклист:
01 - Soul Shakedown Party
02 - Sun Is Shining
03 - Duppy Conqueror
04 - Small Axe
05 - African Herbsman
06 - Trench Town Rock
07 - Lively Up Yourself
08 - Try Me
09 - Soul Rebel
10 - Mr. Brown
11 - Don't Rock The Boat
12 - Dreamland
13 - Kaya
14 - Keep On Moving
15 - Concrete Jungle
16 - Keep On Skanking
17 - Natural Mystic
18 - I Know A Place
  
Exact Audio Copy V0.99 prebeta 5 from 4. May 2009

EAC extraction logfile from 15. February 2010, 0:12

Bob Marley & The Wailers / The Best of the Early Years

Used drive : TSSTcorpCD/DVDW SH-W162C Adapter: 5 ID: 0

Read mode : SecureUtilize accurate stream : YesDefeat audio cache : YesMake use of C2 pointers : No

Read offset correction : 6Overread into Lead-In and Lead-Out : NoFill up missing offset samples with silence : YesDelete leading and trailing silent blocks : NoNull samples used in CRC calculations : YesUsed interface : Installed external ASPI interfaceGap handling : Appended to previous track

Used output format : User Defined EncoderSelected bitrate : 192 kBit/sQuality : HighAdd ID3 tag : NoCommand line compressor : C:\Program Files\Exact Audio Copy\flac.exeAdditional command line options : -8 -A tukey(0.25) -A gauss(0.1875) -b 4096 -V -T "artist=%a" -T "title=%t" -T "album=%g" -T "date=%y" -T "tracknumber=%n" -T "genre=%m" %s --sector-align

TOC of the extracted CD

Track | Start | Length | Start sector | End sector --------------------------------------------------------- 1 | 0:00.00 | 3:09.30 | 0 | 14204 2 | 3:09.30 | 2:11.36 | 14205 | 24065 3 | 5:20.66 | 3:15.45 | 24066 | 38735 4 | 8:36.36 | 3:55.32 | 38736 | 56392 5 | 12:31.68 | 2:23.70 | 56393 | 67187 6 | 14:55.63 | 2:58.06 | 67188 | 80543 7 | 17:53.69 | 2:50.20 | 80544 | 93313 8 | 20:44.14 | 3:06.17 | 93314 | 107280 9 | 23:50.31 | 3:18.06 | 107281 | 122136 10 | 27:08.37 | 3:31.34 | 122137 | 137995 11 | 30:39.71 | 4:32.38 | 137996 | 158433 12 | 35:12.34 | 2:44.17 | 158434 | 170750 13 | 37:56.51 | 2:39.64 | 170751 | 182739 14 | 40:36.40 | 3:07.30 | 182740 | 196794 15 | 43:43.70 | 3:08.34 | 196795 | 210928 16 | 46:52.29 | 3:21.57 | 210929 | 226060 17 | 50:14.11 | 5:40.60 | 226061 | 251620 18 | 55:54.71 | 3:53.72 | 251621 | 269167

Track 1

Filename C:\Whatcd\Bob Marley & The Wailers - The Best of the Early Years FLAC\01 - Bob Marley & The Wailers - Soul Shakedown Party.wav

Pre-gap length 0:00:02.00

Peak level 98.2 % Track quality 100.0 % Test CRC 94F0EEA3 Copy CRC 94F0EEA3 Track not present in AccurateRip database Copy OK

Track 2

Filename C:\Whatcd\Bob Marley & The Wailers - The Best of the Early Years FLAC\02 - Bob Marley & The Wailers - Sun Is Shining.wav

Pre-gap length 0:00:01.36

Peak level 98.2 % Track quality 99.9 % Test CRC 57C8D9BB Copy CRC 57C8D9BB Track not present in AccurateRip database Copy OK

Track 3

Filename C:\Whatcd\Bob Marley & The Wailers - The Best of the Early Years FLAC\03 - Bob Marley & The Wailers - Duppy Conqueror.wav

Pre-gap length 0:00:01.36

Peak level 98.2 % Track quality 99.9 % Test CRC D82A3922 Copy CRC D82A3922 Track not present in AccurateRip database Copy OK

Track 4

Filename C:\Whatcd\Bob Marley & The Wailers - The Best of the Early Years FLAC\04 - Bob Marley & The Wailers - Small Axe.wav

Pre-gap length 0:00:00.38

Peak level 96.4 % Track quality 99.9 % Test CRC 23C5346B Copy CRC 23C5346B Track not present in AccurateRip database Copy OK

Track 5

Filename C:\Whatcd\Bob Marley & The Wailers - The Best of the Early Years FLAC\05 - Bob Marley & The Wailers - African Herbsman.wav

Pre-gap length 0:00:00.02

Peak level 98.2 % Track quality 100.0 % Test CRC 77D556B9 Copy CRC 77D556B9 Track not present in AccurateRip database Copy OK

Track 6

Filename C:\Whatcd\Bob Marley & The Wailers - The Best of the Early Years FLAC\06 - Bob Marley & The Wailers - Trench Town Rock.wav

Peak level 97.3 % Track quality 100.0 % Test CRC A26E6E03 Copy CRC A26E6E03 Track not present in AccurateRip database Copy OK

Track 7

Filename C:\Whatcd\Bob Marley & The Wailers - The Best of the Early Years FLAC\07 - Bob Marley & The Wailers - Lively Up Yourself.wav

Pre-gap length 0:00:00.08

Peak level 92.2 % Track quality 100.0 % Test CRC 0F18CA00 Copy CRC 0F18CA00 Track not present in AccurateRip database Copy OK

Track 8

Filename C:\Whatcd\Bob Marley & The Wailers - The Best of the Early Years FLAC\08 - Bob Marley & The Wailers - Try Me.wav

Pre-gap length 0:00:00.60

Peak level 98.2 % Track quality 100.0 % Test CRC FB0F128E Copy CRC FB0F128E Track not present in AccurateRip database Copy OK

Track 9

Filename C:\Whatcd\Bob Marley & The Wailers - The Best of the Early Years FLAC\09 - Bob Marley & The Wailers - Soul Rebel.wav

Pre-gap length 0:00:00.94

Peak level 98.2 % Track quality 100.0 % Test CRC 0290117F Copy CRC 0290117F Track not present in AccurateRip database Copy OK

Track 10

Filename C:\Whatcd\Bob Marley & The Wailers - The Best of the Early Years FLAC\10 - Bob Marley & The Wailers - Mr. Brown.wav

Peak level 98.2 % Track quality 100.0 % Test CRC 9AFB982A Copy CRC 9AFB982A Track not present in AccurateRip database Copy OK

Track 11

Filename C:\Whatcd\Bob Marley & The Wailers - The Best of the Early Years FLAC\11 - Bob Marley & The Wailers - Don't Rock The Boat.wav

Peak level 98.2 % Track quality 100.0 % Test CRC A68C5C4A Copy CRC A68C5C4A Track not present in AccurateRip database Copy OK

Track 12

Filename C:\Whatcd\Bob Marley & The Wailers - The Best of the Early Years FLAC\12 - Bob Marley & The Wailers - Dreamland.wav

Peak level 82.9 % Track quality 100.0 % Test CRC DD15DD90 Copy CRC DD15DD90 Track not present in AccurateRip database Copy OK

Track 13

Filename C:\Whatcd\Bob Marley & The Wailers - The Best of the Early Years FLAC\13 - Bob Marley & The Wailers - Kaya.wav

Peak level 98.2 % Track quality 100.0 % Test CRC 96BF5B50 Copy CRC 96BF5B50 Track not present in AccurateRip database Copy OK

Track 14

Filename C:\Whatcd\Bob Marley & The Wailers - The Best of the Early Years FLAC\14 - Bob Marley & The Wailers - Keep On Moving.wav

Peak level 98.2 % Track quality 100.0 % Test CRC F4D77614 Copy CRC F4D77614 Track not present in AccurateRip database Copy OK

Track 15

Filename C:\Whatcd\Bob Marley & The Wailers - The Best of the Early Years FLAC\15 - Bob Marley & The Wailers - Concrete Jungle.wav

Pre-gap length 0:00:00.56

Peak level 98.2 % Track quality 100.0 % Test CRC C38DF01D Copy CRC C38DF01D Track not present in AccurateRip database Copy OK

Track 16

Filename C:\Whatcd\Bob Marley & The Wailers - The Best of the Early Years FLAC\16 - Bob Marley & The Wailers - Keep On Skanking.wav

Peak level 93.3 % Track quality 100.0 % Test CRC 08D94B43 Copy CRC 08D94B43 Track not present in AccurateRip database Copy OK

Track 17

Filename C:\Whatcd\Bob Marley & The Wailers - The Best of the Early Years FLAC\17 - Bob Marley & The Wailers - Natural Mystic.wav

Pre-gap length 0:00:01.00

Peak level 98.2 % Track quality 100.0 % Test CRC 66C8C0D4 Copy CRC 66C8C0D4 Track not present in AccurateRip database Copy OK

Track 18

Filename C:\Whatcd\Bob Marley & The Wailers - The Best of the Early Years FLAC\18 - Bob Marley & The Wailers - I Know A Place.wav

Pre-gap length 0:00:00.68

Peak level 98.2 % Track quality 100.0 % Test CRC 1DC7E519 Copy CRC 1DC7E519 Track not present in AccurateRip database Copy OK

None of the tracks are present in the AccurateRip database

No errors occurred

End of status report
  
REM GENRE ReggaeREM DATE 2001REM DISCID EA0E0412REM COMMENT "ExactAudioCopy v0.99pb5"PERFORMER "Bob Marley & The Wailers"TITLE "The Best of the Early Years"FILE "01 - Bob Marley & The Wailers - Soul Shakedown Party.wav" WAVE TRACK 01 AUDIO TITLE "Soul Shakedown Party" PERFORMER "Bob Marley & The Wailers" INDEX 01 00:00:00 TRACK 02 AUDIO TITLE "Sun Is Shining" PERFORMER "Bob Marley & The Wailers" INDEX 00 03:08:03FILE "02 - Bob Marley & The Wailers - Sun Is Shining.wav" WAVE INDEX 01 00:00:00 TRACK 03 AUDIO TITLE "Duppy Conqueror" PERFORMER "Bob Marley & The Wailers" INDEX 00 02:10:09FILE "03 - Bob Marley & The Wailers - Duppy Conqueror.wav" WAVE INDEX 01 00:00:00 TRACK 04 AUDIO TITLE "Small Axe" PERFORMER "Bob Marley & The Wailers" INDEX 00 03:15:16FILE "04 - Bob Marley & The Wailers - Small Axe.wav" WAVE INDEX 01 00:00:00 TRACK 05 AUDIO TITLE "African Herbsman" PERFORMER "Bob Marley & The Wailers" INDEX 00 03:55:30FILE "05 - Bob Marley & The Wailers - African Herbsman.wav" WAVE INDEX 01 00:00:00FILE "06 - Bob Marley & The Wailers - Trench Town Rock.wav" WAVE TRACK 06 AUDIO TITLE "Trench Town Rock" PERFORMER "Bob Marley & The Wailers" INDEX 01 00:00:00 TRACK 07 AUDIO TITLE "Lively Up Yourself" PERFORMER "Bob Marley & The Wailers" INDEX 00 02:58:00FILE "07 - Bob Marley & The Wailers - Lively Up Yourself.wav" WAVE INDEX 01 00:00:00 TRACK 08 AUDIO TITLE "Try Me" PERFORMER "Bob Marley & The Wailers" INDEX 00 02:49:50FILE "08 - Bob Marley & The Wailers - Try Me.wav" WAVE INDEX 01 00:00:00 TRACK 09 AUDIO TITLE "Soul Rebel" PERFORMER "Bob Marley & The Wailers" INDEX 00 03:05:21FILE "09 - Bob Marley & The Wailers - Soul Rebel.wav" WAVE INDEX 01 00:00:00FILE "10 - Bob Marley & The Wailers - Mr. Brown.wav" WAVE TRACK 10 AUDIO TITLE "Mr. Brown" PERFORMER "Bob Marley & The Wailers" INDEX 01 00:00:00FILE "11 - Bob Marley & The Wailers - Don't Rock The Boat.wav" WAVE TRACK 11 AUDIO TITLE "Don't Rock The Boat" PERFORMER "Bob Marley & The Wailers" INDEX 01 00:00:00FILE "12 - Bob Marley & The Wailers - Dreamland.wav" WAVE TRACK 12 AUDIO TITLE "Dreamland" PERFORMER "Bob Marley & The Wailers" INDEX 01 00:00:00FILE "13 - Bob Marley & The Wailers - Kaya.wav" WAVE TRACK 13 AUDIO TITLE "Kaya" PERFORMER "Bob Marley & The Wailers" INDEX 01 00:00:00FILE "14 - Bob Marley & The Wailers - Keep On Moving.wav" WAVE TRACK 14 AUDIO TITLE "Keep On Moving" PERFORMER "Bob Marley & The Wailers" INDEX 01 00:00:00 TRACK 15 AUDIO TITLE "Concrete Jungle" PERFORMER "Bob Marley & The Wailers" INDEX 00 03:06:63FILE "15 - Bob Marley & The Wailers - Concrete Jungle.wav" WAVE INDEX 01 00:00:00FILE "16 - Bob Marley & The Wailers - Keep On Skanking.wav" WAVE TRACK 16 AUDIO TITLE "Keep On Skanking" PERFORMER "Bob Marley & The Wailers" INDEX 01 00:00:00 TRACK 17 AUDIO TITLE "Natural Mystic" PERFORMER "Bob Marley & The Wailers" INDEX 00 03:20:57FILE "17 - Bob Marley & The Wailers - Natural Mystic.wav" WAVE INDEX 01 00:00:00 TRACK 18 AUDIO TITLE "I Know A Place" PERFORMER "Bob Marley & The Wailers" INDEX 00 05:40:09FILE "18 - Bob Marley & The Wailers - I Know A Place.wav" WAVE INDEX 01 00:00:00
Recorded between 1969 and 1978. Includes liner notes by Laurence Cane-Honeysett.
If there was anyone who defined reggae in the mid-1970s--giving it a face and a voice--it was Bob Marley. THE BEST OF THE EARLY YEARS finds the legendary Marley and the Wailers performing live with righteous fervor, playing songs that would later become world-famous, including "Duppy Conqueror," "Trench Town Rock," "Lively Up Yourself," "Kaya," "Keep On Moving," and "Concrete Jungle."
This exciting Dualdisc collection features his early seminal work from the late 60s, along with the best collaborations with the legendary Lee "Scratch" Perry. This collection illustrates the developing talents of a man who rose from the ghettos of Kingston to become the Third World's first international superstar. The video side features the complete album in 5.1 surround sound, artist photos, liner notes, weblinks, and portable music files.
All tracks have been digitally remastered.


Трекер:  [ 27-Апр-2012 13:54 ]

  

Скачать .torrent

Размер .torrent файла 12 KB


Размер: 261 MB
Хэш (hash) релиза: 63f17b3fabfb19191e83484e69da25d22b4a5ae6

Еще никто не оставлял запись к записи скачать торрент Bob Marley & The Wailers - The Best of the Early Years - 2001, FLAC . Будь первым!

!Обратная связь