View Profile | My Little Pony: Friendship is Magic #10 | A la découverte de Mac OS X Mavericks

Скачать через торрент музыку Bob Marley & The Wailers - The Very Best In Memoriam - 2001, FLAC бесплатно без регистрации torrent

Статистика раздачи
Размер:  422 MB   |    Зарегистрирован:  6 лет 2 месяца   |    .torrent скачан:  54 раза   |   
Раздают:  1  
   
загрузка...
 
Автор Сообщение

_N_

avatar _N_


Bob Marley & The Wailers / The Very Best In Memoriam

Жанр: Reggae
Год издания: 2001
Страна: Jamaica
Аудиокодек: FLAC (*.flac)
Тип рипа: tracks+.cue
Битрейт аудио: lossless
Продолжительность: 01:10:56
Источник (релизер): вата, PerrySch
Наличие сканов в содержимом раздачи: нет
Треклист:
01 - Could You Be Loved
02 - Is This Love
03 - No Women No Cry
04 - Buffalo Soldier
05 - Jamming
06 - Exodus
07 - I Shot The Sheriff
08 - Iron Lion Zion
09 - One Love (People Get Ready)
10 - Roots Rock Reggae
11 - Get Up Stand Up
12 - Waiting In Vain
13 - Rock Steady
14 - What Goes Around Comes Around
15 - Three Little Birds
16 - Satisfy My Soul
17 - Natural Mystic
18 - Stir It Up
19 - Redemption Song
20 - Keep On Moving
  
Exact Audio Copy V1.0 beta 3 from 29. August 2011

EAC extraction logfile from 9. October 2011, 14:27

Bob Marley & The Wailers / The Very Best In Memoriam

Used drive : hp BD ROM BC-5501H Adapter: 0 ID: 1

Read mode : SecureUtilize accurate stream : YesDefeat audio cache : YesMake use of C2 pointers : No

Read offset correction : 48Overread into Lead-In and Lead-Out : NoFill up missing offset samples with silence : YesDelete leading and trailing silent blocks : NoNull samples used in CRC calculations : YesUsed interface : Native Win32 interface for Win NT & 2000Gap handling : Appended to previous track

Used output format : User Defined EncoderSelected bitrate : 1024 kBit/sQuality : HighAdd ID3 tag : NoCommand line compressor : C:\Program Files (x86)\FLAC\flac.exeAdditional command line options : -8 -V -T "ARTIST=%artist%" -T "TITLE=%title%" -T "ALBUM=%albumtitle%" -T "DATE=%year%" -T "TRACKNUMBER=%tracknr%" -T "GENRE=%genre%" -T "PERFORMER=%albuminterpret%" -T "COMPOSER=%composer%" %haslyrics%--tag-from-file=LYRICS="%lyricsfile%"%haslyrics% -T "ALBUMARTIST=%albumartist%" -T "ALBUM ARTIST=%albumartist%" -T "DISCNUMBER=%cdnumber%" -T "TOTALDISCS=%totalcds%" -T "TOTALTRACKS=%numtracks%" -T "COMMENT=%comment%" %source% -o %dest%

TOC of the extracted CD

Track | Start | Length | Start sector | End sector --------------------------------------------------------- 1 | 0:00.00 | 3:36.05 | 0 | 16204 2 | 3:36.05 | 3:55.08 | 16205 | 33837 3 | 7:31.13 | 4:03.72 | 33838 | 52134 4 | 11:35.10 | 2:44.06 | 52135 | 64440 5 | 14:19.16 | 3:17.45 | 64441 | 79260 6 | 17:36.61 | 4:17.18 | 79261 | 98553 7 | 21:54.04 | 3:48.50 | 98554 | 115703 8 | 25:42.54 | 3:14.21 | 115704 | 130274 9 | 28:57.00 | 2:50.07 | 130275 | 143031 10 | 31:47.07 | 3:32.36 | 143032 | 158967 11 | 35:19.43 | 3:14.24 | 158968 | 173541 12 | 38:33.67 | 4:07.24 | 173542 | 192090 13 | 42:41.16 | 2:19.04 | 192091 | 202519 14 | 45:00.20 | 3:50.37 | 202520 | 219806 15 | 48:50.57 | 3:00.18 | 219807 | 233324 16 | 51:51.00 | 3:49.25 | 233325 | 250524 17 | 55:40.25 | 3:26.56 | 250525 | 266030 18 | 59:07.06 | 3:38.72 | 266031 | 282452 19 | 62:46.03 | 3:48.48 | 282453 | 299600 20 | 66:34.51 | 4:21.34 | 299601 | 319209

Track 1

Filename C:\what.cd\(2001) Bob Marley & The Wailers - The Very Best In Memoriam [FLAC]\01. Could You Be Loved.wav

Pre-gap length 0:00:02.00

Peak level 85.2 % Extraction speed 2.3 X Track quality 100.0 % Test CRC AC553678 Copy CRC AC553678 Accurately ripped (confidence 2) [A25AE34E] (AR v1) Copy OK

Track 2

Filename C:\what.cd\(2001) Bob Marley & The Wailers - The Very Best In Memoriam [FLAC]\02. Is This Love.wav

Pre-gap length 0:00:01.98

Peak level 97.5 % Extraction speed 2.6 X Track quality 100.0 % Test CRC FA6B4F1C Copy CRC FA6B4F1C Accurately ripped (confidence 2) [943F4D79] (AR v2) Copy OK

Track 3

Filename C:\what.cd\(2001) Bob Marley & The Wailers - The Very Best In Memoriam [FLAC]\03. No Women No Cry.wav

Pre-gap length 0:00:01.98

Peak level 75.0 % Extraction speed 2.9 X Track quality 100.0 % Test CRC 613015B5 Copy CRC 613015B5 Accurately ripped (confidence 2) [02C037E8] (AR v2) Copy OK

Track 4

Filename C:\what.cd\(2001) Bob Marley & The Wailers - The Very Best In Memoriam [FLAC]\04. Buffalo Soldier.wav

Pre-gap length 0:00:01.98

Peak level 99.1 % Extraction speed 2.9 X Track quality 100.0 % Test CRC AC439E4F Copy CRC AC439E4F Accurately ripped (confidence 2) [FE9A65EF] (AR v2) Copy OK

Track 5

Filename C:\what.cd\(2001) Bob Marley & The Wailers - The Very Best In Memoriam [FLAC]\05. Jamming.wav

Pre-gap length 0:00:01.98

Peak level 97.9 % Extraction speed 3.2 X Track quality 100.0 % Test CRC 23161862 Copy CRC 23161862 Accurately ripped (confidence 2) [851DD420] (AR v2) Copy OK

Track 6

Filename C:\what.cd\(2001) Bob Marley & The Wailers - The Very Best In Memoriam [FLAC]\06. Exodus.wav

Pre-gap length 0:00:01.98

Peak level 76.0 % Extraction speed 3.4 X Track quality 100.0 % Test CRC EEC43E5C Copy CRC EEC43E5C Accurately ripped (confidence 2) [41983785] (AR v2) Copy OK

Track 7

Filename C:\what.cd\(2001) Bob Marley & The Wailers - The Very Best In Memoriam [FLAC]\07. I Shot The Sheriff.wav

Pre-gap length 0:00:01.98

Peak level 85.1 % Extraction speed 3.6 X Track quality 100.0 % Test CRC D11F3611 Copy CRC D11F3611 Accurately ripped (confidence 2) [AA588B84] (AR v2) Copy OK

Track 8

Filename C:\what.cd\(2001) Bob Marley & The Wailers - The Very Best In Memoriam [FLAC]\08. Iron Lion Zion.wav

Pre-gap length 0:00:01.98

Peak level 89.3 % Extraction speed 3.7 X Track quality 100.0 % Test CRC A0CDA364 Copy CRC A0CDA364 Accurately ripped (confidence 2) [AA7E0749] (AR v2) Copy OK

Track 9

Filename C:\what.cd\(2001) Bob Marley & The Wailers - The Very Best In Memoriam [FLAC]\09. One Love (People Get Ready).wav

Pre-gap length 0:00:01.98

Peak level 75.1 % Extraction speed 3.7 X Track quality 100.0 % Test CRC 8B62020A Copy CRC 8B62020A Accurately ripped (confidence 2) [5B5847BB] (AR v2) Copy OK

Track 10

Filename C:\what.cd\(2001) Bob Marley & The Wailers - The Very Best In Memoriam [FLAC]\10. Roots Rock Reggae.wav

Pre-gap length 0:00:01.98

Peak level 94.4 % Extraction speed 3.2 X Track quality 99.9 % Test CRC 98E91A4A Copy CRC 98E91A4A Accurately ripped (confidence 2) [D65F5869] (AR v2) Copy OK

Track 11

Filename C:\what.cd\(2001) Bob Marley & The Wailers - The Very Best In Memoriam [FLAC]\11. Get Up Stand Up.wav

Pre-gap length 0:00:01.98

Peak level 89.9 % Extraction speed 4.0 X Track quality 100.0 % Test CRC 4BA47A87 Copy CRC 4BA47A87 Accurately ripped (confidence 2) [F510F7B1] (AR v2) Copy OK

Track 12

Filename C:\what.cd\(2001) Bob Marley & The Wailers - The Very Best In Memoriam [FLAC]\12. Waiting In Vain.wav

Pre-gap length 0:00:01.98

Peak level 85.9 % Extraction speed 3.5 X Track quality 99.9 % Test CRC F0DA57FD Copy CRC F0DA57FD Accurately ripped (confidence 2) [CDE144F6] (AR v2) Copy OK

Track 13

Filename C:\what.cd\(2001) Bob Marley & The Wailers - The Very Best In Memoriam [FLAC]\13. Rock Steady.wav

Pre-gap length 0:00:01.98

Peak level 71.0 % Extraction speed 4.0 X Track quality 100.0 % Test CRC 850748BF Copy CRC 850748BF Accurately ripped (confidence 2) [BADE030A] (AR v2) Copy OK

Track 14

Filename C:\what.cd\(2001) Bob Marley & The Wailers - The Very Best In Memoriam [FLAC]\14. What Goes Around Comes Around.wav

Pre-gap length 0:00:01.98

Peak level 82.3 % Extraction speed 4.5 X Track quality 100.0 % Test CRC 36D548CE Copy CRC 36D548CE Accurately ripped (confidence 2) [0295F299] (AR v2) Copy OK

Track 15

Filename C:\what.cd\(2001) Bob Marley & The Wailers - The Very Best In Memoriam [FLAC]\15. Three Little Birds.wav

Pre-gap length 0:00:01.98

Peak level 78.3 % Extraction speed 3.4 X Track quality 99.9 % Test CRC A3FA1D06 Copy CRC A3FA1D06 Accurately ripped (confidence 2) [51D76F3A] (AR v2) Copy OK

Track 16

Filename C:\what.cd\(2001) Bob Marley & The Wailers - The Very Best In Memoriam [FLAC]\16. Satisfy My Soul.wav

Pre-gap length 0:00:01.98

Peak level 92.6 % Extraction speed 4.6 X Track quality 100.0 % Test CRC 495C91BB Copy CRC 495C91BB Accurately ripped (confidence 2) [F288B6FF] (AR v2) Copy OK

Track 17

Filename C:\what.cd\(2001) Bob Marley & The Wailers - The Very Best In Memoriam [FLAC]\17. Natural Mystic.wav

Pre-gap length 0:00:01.98

Peak level 79.6 % Extraction speed 4.7 X Track quality 100.0 % Test CRC 86EFBEFF Copy CRC 86EFBEFF Accurately ripped (confidence 2) [D7A3F1A2] (AR v2) Copy OK

Track 18

Filename C:\what.cd\(2001) Bob Marley & The Wailers - The Very Best In Memoriam [FLAC]\18. Stir It Up.wav

Pre-gap length 0:00:01.98

Peak level 81.7 % Extraction speed 4.9 X Track quality 100.0 % Test CRC 1A669B3F Copy CRC 1A669B3F Accurately ripped (confidence 2) [B197A806] (AR v2) Copy OK

Track 19

Filename C:\what.cd\(2001) Bob Marley & The Wailers - The Very Best In Memoriam [FLAC]\19. Redemption Song.wav

Pre-gap length 0:00:01.98

Peak level 74.4 % Extraction speed 5.0 X Track quality 100.0 % Test CRC 3A63CD7E Copy CRC 3A63CD7E Accurately ripped (confidence 2) [BAF968DD] (AR v2) Copy OK

Track 20

Filename C:\what.cd\(2001) Bob Marley & The Wailers - The Very Best In Memoriam [FLAC]\20. Keep On Moving.wav

Pre-gap length 0:00:01.98

Peak level 100.0 % Extraction speed 5.3 X Track quality 100.0 % Test CRC 93A9A468 Copy CRC 93A9A468 Accurately ripped (confidence 2) [F2D9CA2F] (AR v2) Copy OK

All tracks accurately ripped

No errors occurred

End of status report

---- CUETools DB Plugin V2.1.2

[CTDB TOCID: BS6XH3FTg1gs..mY1z1asKgdRnw-] disk not present in database, Submit result: BS6XH3FTg1gs..mY1z1asKgdRnw- has been uploaded

==== Log checksum 3931DD8ED1513A295F10DFC2B949740869D7BD0C9B82D5621F54315FC3D4F5F2 ====
  
REM GENRE ReggaeREM DATE 2001REM DISCID 2510A014REM COMMENT "ExactAudioCopy v1.0b3"CATALOG 0000000000000PERFORMER "Bob Marley & The Wailers"TITLE "The Very Best In Memoriam"FILE "01. Could You Be Loved.wav" WAVE TRACK 01 AUDIO TITLE "Could You Be Loved" PERFORMER "Bob Marley & The Wailers" ISRC 000000000000 INDEX 01 00:00:00 TRACK 02 AUDIO TITLE "Is This Love" PERFORMER "Bob Marley & The Wailers" ISRC 000000000000 INDEX 00 03:34:06FILE "02. Is This Love.wav" WAVE INDEX 01 00:00:00 TRACK 03 AUDIO TITLE "No Women No Cry" PERFORMER "Bob Marley & The Wailers" ISRC 000000000000 INDEX 00 03:53:09FILE "03. No Women No Cry.wav" WAVE INDEX 01 00:00:00 TRACK 04 AUDIO TITLE "Buffalo Soldier" PERFORMER "Bob Marley & The Wailers" ISRC 000000000000 INDEX 00 04:01:73FILE "04. Buffalo Soldier.wav" WAVE INDEX 01 00:00:00 TRACK 05 AUDIO TITLE "Jamming" PERFORMER "Bob Marley & The Wailers" ISRC 000000000000 INDEX 00 02:42:07FILE "05. Jamming.wav" WAVE INDEX 01 00:00:00 TRACK 06 AUDIO TITLE "Exodus" PERFORMER "Bob Marley & The Wailers" ISRC 000000000000 INDEX 00 03:15:46FILE "06. Exodus.wav" WAVE INDEX 01 00:00:00 TRACK 07 AUDIO TITLE "I Shot The Sheriff" PERFORMER "Bob Marley & The Wailers" ISRC 000000000000 INDEX 00 04:15:19FILE "07. I Shot The Sheriff.wav" WAVE INDEX 01 00:00:00 TRACK 08 AUDIO TITLE "Iron Lion Zion" PERFORMER "Bob Marley & The Wailers" ISRC 000000000000 INDEX 00 03:46:51FILE "08. Iron Lion Zion.wav" WAVE INDEX 01 00:00:00 TRACK 09 AUDIO TITLE "One Love (People Get Ready)" PERFORMER "Bob Marley & The Wailers" ISRC 000000000000 INDEX 00 03:12:22FILE "09. One Love (People Get Ready).wav" WAVE INDEX 01 00:00:00 TRACK 10 AUDIO TITLE "Roots Rock Reggae" PERFORMER "Bob Marley & The Wailers" ISRC 000000000000 INDEX 00 02:48:08FILE "10. Roots Rock Reggae.wav" WAVE INDEX 01 00:00:00 TRACK 11 AUDIO TITLE "Get Up Stand Up" PERFORMER "Bob Marley & The Wailers" ISRC 000000000000 INDEX 00 03:30:37FILE "11. Get Up Stand Up.wav" WAVE INDEX 01 00:00:00 TRACK 12 AUDIO TITLE "Waiting In Vain" PERFORMER "Bob Marley & The Wailers" ISRC 000000000000 INDEX 00 03:12:25FILE "12. Waiting In Vain.wav" WAVE INDEX 01 00:00:00 TRACK 13 AUDIO TITLE "Rock Steady" PERFORMER "Bob Marley & The Wailers" ISRC 000000000000 INDEX 00 04:05:25FILE "13. Rock Steady.wav" WAVE INDEX 01 00:00:00 TRACK 14 AUDIO TITLE "What Goes Around Comes Around" PERFORMER "Bob Marley & The Wailers" ISRC 000000000000 INDEX 00 02:17:05FILE "14. What Goes Around Comes Around.wav" WAVE INDEX 01 00:00:00 TRACK 15 AUDIO TITLE "Three Little Birds" PERFORMER "Bob Marley & The Wailers" ISRC 000000000000 INDEX 00 03:48:38FILE "15. Three Little Birds.wav" WAVE INDEX 01 00:00:00 TRACK 16 AUDIO TITLE "Satisfy My Soul" PERFORMER "Bob Marley & The Wailers" ISRC 000000000000 INDEX 00 02:58:19FILE "16. Satisfy My Soul.wav" WAVE INDEX 01 00:00:00 TRACK 17 AUDIO TITLE "Natural Mystic" PERFORMER "Bob Marley & The Wailers" ISRC 000000000000 INDEX 00 03:47:26FILE "17. Natural Mystic.wav" WAVE INDEX 01 00:00:00 TRACK 18 AUDIO TITLE "Stir It Up" PERFORMER "Bob Marley & The Wailers" ISRC 000000000000 INDEX 00 03:24:57FILE "18. Stir It Up.wav" WAVE INDEX 01 00:00:00 TRACK 19 AUDIO TITLE "Redemption Song" PERFORMER "Bob Marley & The Wailers" ISRC 000000000000 INDEX 00 03:36:73FILE "19. Redemption Song.wav" WAVE INDEX 01 00:00:00 TRACK 20 AUDIO TITLE "Keep On Moving" PERFORMER "Bob Marley & The Wailers" ISRC 000000000000 INDEX 00 03:46:49FILE "20. Keep On Moving.wav" WAVE INDEX 01 00:00:00


Трекер:  [ 27-Апр-2012 13:54 ]

  

Скачать .torrent

Размер .torrent файла 18 KB


Размер: 422 MB
Хэш (hash) релиза: 3223fb0ab5c03aa0a1d0e64dd085da6b8abbb6e1

Еще никто не оставлял запись к записи скачать торрент Bob Marley & The Wailers - The Very Best In Memoriam - 2001, FLAC . Будь первым!

!Обратная связь