Chapter 252 | Motorcycles | 56% Baywatch

Скачать через торрент музыку The Pepper Pots - Train To Your Lover - 2011, FLAC бесплатно без регистрации torrent

Статистика раздачи
Размер:  260 MB   |    Зарегистрирован:  6 лет 2 месяца   |    .torrent скачан:  51 раз   |   
Раздают:  1  
   
загрузка...
 
Автор Сообщение

_N_

avatar _N_


The Pepper Pots - Train To Your Lover

Жанр: SkaJazz/Soul
Страна-производитель диска: Spain
Год издания диска: 2011
Аудиокодек: FLAC (*.flac)
Тип рипа: tracks+.cue
Битрейт аудио: lossless
Продолжительность: 00:37:05
Источник (релизер): What.CD (Popcat)
Наличие сканов в содержимом раздачи: нет
Треклист:
01. Can't Let Him Go
02. I Need To Hold Your Hand
03. Wanna Blindly Trust You
04. Fated Heart
05. Let's Go Dance
06. Dreams of Coming Back
07. Train To Your Lover
08. I Can't Choose
09. It's Not Easy
10. You Are the Best Song
11. You Hurt Me Really Bad
12. Gladden Your Soul
  
Exact Audio Copy V0.99 prebeta 5 from 4. May 2009

EAC extraction logfile from 10. May 2011, 22:34

The Pepper Pots / Train To Your Lover

Used drive : TSSTcorpCDDVDW SH-S223C Adapter: 0 ID: 1

Read mode : SecureUtilize accurate stream : YesDefeat audio cache : YesMake use of C2 pointers : No

Read offset correction : 697Overread into Lead-In and Lead-Out : NoFill up missing offset samples with silence : YesDelete leading and trailing silent blocks : NoNull samples used in CRC calculations : YesUsed interface : Native Win32 interface for Win NT & 2000Gap handling : Appended to previous track

Used output format : User Defined EncoderSelected bitrate : 320 kBit/sQuality : HighAdd ID3 tag : NoCommand line compressor : C:\Program Files\Exact Audio Copy\Flac\flac.exeAdditional command line options : -V -8 -T "artist=%a" -T "title=%t" -T "album=%g" -T "date=%y" -T "tracknumber=%n" -T "genre=%m" %s

TOC of the extracted CD

Track | Start | Length | Start sector | End sector --------------------------------------------------------- 1 | 0:00.00 | 3:10.03 | 0 | 14252 2 | 3:10.03 | 3:07.33 | 14253 | 28310 3 | 6:17.36 | 2:40.57 | 28311 | 40367 4 | 8:58.18 | 3:38.21 | 40368 | 56738 5 | 12:36.39 | 2:54.09 | 56739 | 69797 6 | 15:30.48 | 2:57.23 | 69798 | 83095 7 | 18:27.71 | 3:24.11 | 83096 | 98406 8 | 21:52.07 | 2:45.17 | 98407 | 110798 9 | 24:37.24 | 3:25.30 | 110799 | 126203 10 | 28:02.54 | 3:22.62 | 126204 | 141415 11 | 31:25.41 | 2:45.16 | 141416 | 153806 12 | 34:10.57 | 2:58.59 | 153807 | 167215

Track 1

Filename C:\EAC\The Pepper Pots - 2011-Train To Your Lover\01 - 01 Can't Let Him Go.wav

Pre-gap length 0:00:02.00

Peak level 98.4 % Track quality 100.0 % Test CRC 5D5DB315 Copy CRC 5D5DB315 Track not present in AccurateRip database Copy OK

Track 2

Filename C:\EAC\The Pepper Pots - 2011-Train To Your Lover\02 - 02 I Need To Hold Your Hand.wav

Pre-gap length 0:00:02.00

Peak level 98.5 % Track quality 100.0 % Test CRC C44D8FE3 Copy CRC C44D8FE3 Track not present in AccurateRip database Copy OK

Track 3

Filename C:\EAC\The Pepper Pots - 2011-Train To Your Lover\03 - 03 Wanna Blindly Trust In You.wav

Pre-gap length 0:00:02.00

Peak level 99.1 % Track quality 100.0 % Test CRC 3F77E62D Copy CRC 3F77E62D Track not present in AccurateRip database Copy OK

Track 4

Filename C:\EAC\The Pepper Pots - 2011-Train To Your Lover\04 - 04 Fated Heart.wav

Pre-gap length 0:00:02.00

Peak level 97.9 % Track quality 100.0 % Test CRC 9B6426D6 Copy CRC 9B6426D6 Track not present in AccurateRip database Copy OK

Track 5

Filename C:\EAC\The Pepper Pots - 2011-Train To Your Lover\05 - 05 Let's Go To Dance.wav

Pre-gap length 0:00:02.00

Peak level 96.9 % Track quality 100.0 % Test CRC C145FFBF Copy CRC C145FFBF Track not present in AccurateRip database Copy OK

Track 6

Filename C:\EAC\The Pepper Pots - 2011-Train To Your Lover\06 - 06 Dreams of Coming Back.wav

Pre-gap length 0:00:02.00

Peak level 95.4 % Track quality 99.9 % Test CRC 1609CABD Copy CRC 1609CABD Track not present in AccurateRip database Copy OK

Track 7

Filename C:\EAC\The Pepper Pots - 2011-Train To Your Lover\07 - 07 Train To Your Lover.wav

Pre-gap length 0:00:02.00

Peak level 96.1 % Track quality 100.0 % Test CRC C1300007 Copy CRC C1300007 Track not present in AccurateRip database Copy OK

Track 8

Filename C:\EAC\The Pepper Pots - 2011-Train To Your Lover\08 - 08 I Can't Choose.wav

Pre-gap length 0:00:02.00

Peak level 97.4 % Track quality 100.0 % Test CRC B27893B7 Copy CRC B27893B7 Track not present in AccurateRip database Copy OK

Track 9

Filename C:\EAC\The Pepper Pots - 2011-Train To Your Lover\09 - 09 It's Not Easy.wav

Pre-gap length 0:00:02.00

Peak level 95.4 % Track quality 100.0 % Test CRC EAF1316A Copy CRC EAF1316A Track not present in AccurateRip database Copy OK

Track 10

Filename C:\EAC\The Pepper Pots - 2011-Train To Your Lover\10 - 10 You Are the Best Song.wav

Pre-gap length 0:00:02.00

Peak level 97.3 % Track quality 100.0 % Test CRC 1E20E2CB Copy CRC 1E20E2CB Track not present in AccurateRip database Copy OK

Track 11

Filename C:\EAC\The Pepper Pots - 2011-Train To Your Lover\11 - 11 You Hurt Me Really Bad.wav

Pre-gap length 0:00:02.00

Peak level 96.8 % Track quality 100.0 % Test CRC E60BC4A8 Copy CRC E60BC4A8 Track not present in AccurateRip database Copy OK

Track 12

Filename C:\EAC\The Pepper Pots - 2011-Train To Your Lover\12 - 12 Gladden Your Soul.wav

Pre-gap length 0:00:02.00

Peak level 98.1 % Track quality 100.0 % Test CRC 3F699869 Copy CRC 3F699869 Track not present in AccurateRip database Copy OK

None of the tracks are present in the AccurateRip database

No errors occurred

End of status report
  
REM GENRE SoulREM DATE 2011REM DISCID A908B50CREM COMMENT "ExactAudioCopy v0.99pb5"FILE "The Pepper Pots - 2011-Train To Your Lover\01 - 01 Can't Let Him Go.wav" WAVE TRACK 01 AUDIO INDEX 01 00:00:00 TRACK 02 AUDIO INDEX 00 03:08:03FILE "The Pepper Pots - 2011-Train To Your Lover\02 - 02 I Need To Hold Your Hand.wav" WAVE INDEX 01 00:00:00 TRACK 03 AUDIO INDEX 00 03:05:33FILE "The Pepper Pots - 2011-Train To Your Lover\03 - 03 Wanna Blindly Trust In You.wav" WAVE INDEX 01 00:00:00 TRACK 04 AUDIO INDEX 00 02:38:57FILE "The Pepper Pots - 2011-Train To Your Lover\04 - 04 Fated Heart.wav" WAVE INDEX 01 00:00:00 TRACK 05 AUDIO INDEX 00 03:36:21FILE "The Pepper Pots - 2011-Train To Your Lover\05 - 05 Let's Go To Dance.wav" WAVE INDEX 01 00:00:00 TRACK 06 AUDIO INDEX 00 02:52:09FILE "The Pepper Pots - 2011-Train To Your Lover\06 - 06 Dreams of Coming Back.wav" WAVE INDEX 01 00:00:00 TRACK 07 AUDIO INDEX 00 02:55:23FILE "The Pepper Pots - 2011-Train To Your Lover\07 - 07 Train To Your Lover.wav" WAVE INDEX 01 00:00:00 TRACK 08 AUDIO INDEX 00 03:22:11FILE "The Pepper Pots - 2011-Train To Your Lover\08 - 08 I Can't Choose.wav" WAVE INDEX 01 00:00:00 TRACK 09 AUDIO INDEX 00 02:43:17FILE "The Pepper Pots - 2011-Train To Your Lover\09 - 09 It's Not Easy.wav" WAVE INDEX 01 00:00:00 TRACK 10 AUDIO INDEX 00 03:23:30FILE "The Pepper Pots - 2011-Train To Your Lover\10 - 10 You Are the Best Song.wav" WAVE INDEX 01 00:00:00 TRACK 11 AUDIO INDEX 00 03:20:62FILE "The Pepper Pots - 2011-Train To Your Lover\11 - 11 You Hurt Me Really Bad.wav" WAVE INDEX 01 00:00:00 TRACK 12 AUDIO INDEX 00 02:43:16FILE "The Pepper Pots - 2011-Train To Your Lover\12 - 12 Gladden Your Soul.wav" WAVE INDEX 01 00:00:00


Трекер:  [ 27-Апр-2012 13:56 ]

  

Скачать .torrent

Размер .torrent файла 2 KB


Размер: 260 MB
Хэш (hash) релиза: b4dbc322242bddabe7a87693c72a8f498f36572a

Еще никто не оставлял запись к записи скачать торрент The Pepper Pots - Train To Your Lover - 2011, FLAC . Будь первым!

!Обратная связь