Hum Hain Na | Sample Tools by Cr2 Future House MULTiFORMAT | • Succession

Скачать через торрент [VIDEO] Другой Мир. Тетралогия Underworld. Tetralogy бесплатно русская версия torrent активатор

Статистика раздачи
Размер:  2.62 GB   |    Зарегистрирован:  6 лет 2 месяца   |    .torrent скачан:  67 раз   |   
Раздают:  1  
   
загрузка...
 
Автор Сообщение

Galfimbul

avatar Galfimbul


Другой Мир. Тетралогия / Underworld. Tetralogy




Другой мир [Расширенная версия] / Underworld [Extended Cut]
«Во время финальной битвы вампиров и оборотней на чьей стороне будете Вы?»
Год выпуска: 2003
[b]Продолжительность:
02:13:37
Производство: США, Великобритания, Германия (ФРГ), Венгрия
Жанр: фэнтези, боевик, триллер
Перевод: Профессиональный (полное дублирование) [Лицензия][/b]
Субтитры: нет
Дата мировой премьеры: 8 сентября 2003
Режиссер: Лен Уайзмэн / Len Wiseman
Актеры: Кейт Бекинсейл, Скотт Спидман, Майкл Шин, Шэйн Бролли, Билл Найи, Эрвин Ледер, Софи Майлс, Робби Ги, Вентуорф Миллер, Кевин Гревье, Зита Горог, Дэннис Дж. Козелу, Скотт МакЭлрой, Тодд Шнайдер, Сандор Болла, Хэнк Амос, Жужа Барси, Ричард Цетрон, Майк Мукатис, Сандор Борос, Янос Ола
Описание фильма:
Столетиями властители царства мрака, вампиры и оборотни ведут беспощадную войну, невидимую человеческому взору. Бесстрашная Селина, воин-вампир, каждую ночь истребляет оборотней, влекомая неутолимой жаждой мести. Ее клан уверен, что вампирам удалось одержать верх над заклятыми врагами, но Селина подозревает, что у оборотней есть тайный план, сулящий гибель ее роду.

В центре этого плана — смертный парень Майкл. Его генетический код — ключ к созданию сверхсущества, которое будет бессмертно и неуязвимо. Теперь Селина должна любой ценой первой добраться до него, чтобы определить исход вечного противостояния двух могущественных рас, которых люди до сих пор считали мифом…
Рейтинг:

Качество: BDRip | [b]Формат: MP4 | Видео кодек: XviD | Аудио кодек: AAC
Видео: 640x272 (AR 2.35:1), 760 Kbps, 23.976 fps | Аудио: 128 Kbps, 48.0 KHz, 2ch, Stereo[/b]
General
Complete name : K:\Torrents\Мои раздачи\[VIDEO4PDA] Underworld. Quadrilogy\Underworld.Extended.Cut.2003.BluRay.mp4
Format : MPEG-4
Format profile : Base Media / Version 2
Codec ID : mp42
File size : 851 MiB
Duration : 2h 13mn
Overall bit rate mode : Variable
Overall bit rate : 891 Kbps
Encoded date : UTC 2011-05-22 18:02:58
Tagged date : UTC 2011-05-22 18:02:58

Video
ID : 201
Format : MPEG-4 Visual
Format profile : Advanced [email protected]
Format settings, BVOP : No
Format settings, QPel : No
Format settings, GMC : No warppoints
Format settings, Matrix : Default (H.263)
Codec ID : 20
Duration : 2h 13mn
Bit rate mode : Variable
Bit rate : 760 Kbps
Maximum bit rate : 5 190 Kbps
Width : 640 pixels
Height : 272 pixels
Display aspect ratio : 2.35:1
Frame rate mode : Constant
Frame rate : 23.976 fps
Color space : YUV
Chroma subsampling : 4:2:0
Bit depth : 8 bits
Scan type : Progressive
Compression mode : Lossy
Bits/(Pixel*Frame) : 0.182
Stream size : 727 MiB (85%)
Writing library : XviD 61
Encoded date : UTC 2011-05-22 18:02:58
Tagged date : UTC 2011-05-22 18:03:46

Audio
ID : 101
Format : AAC
Format/Info : Advanced Audio Codec
Format profile : LC
Codec ID : 40
Duration : 2h 13mn
Bit rate mode : Variable
Bit rate : 128 Kbps
Maximum bit rate : 138 Kbps
Channel(s) : 2 channels
Channel positions : Front: L R
Sampling rate : 48.0 KHz
Compression mode : Lossy
Stream size : 122 MiB (14%)
Encoded date : UTC 2011-05-22 18:03:42
Tagged date : UTC 2011-05-22 18:03:46



Другой мир 2: Эволюция / Underworld: Evolution
«Новая глава. Новая раса. Новая битва.»
Год выпуска: 2006
[b]Продолжительность:
01:46:22
Производство: США
Жанр: фэнтези, боевик, триллер
Перевод: Профессиональный (полное дублирование) [Лицензия][/b]
Субтитры: нет
Дата мировой премьеры: 12 января 2006
Режиссер: Лен Уайзмэн / Len Wiseman
Актеры: Кейт Бекинсейл, Скотт Спидман, Тони Каррен, Шэйн Бролли, Дерек Якоби, Билл Найи, Стивен Макинтош, Зита Горог, Брайан Стил, Скотт МакЭлрой, Джон Манн, Майкл Шин, Софи Майлс, Ричард Цетрон, Майк Мукатис, Кристин Даниэль, Кайя Джестал, Аттила Ловаджи, Александр Грант, Моника Гамбург, Лили Мо Шин
Описание фильма:
В зловещем ночном мире, скрытом от взора простых смертных, не утихает беспощадная борьба между двумя кланами властителей мрака — вампирами и оборотнями. Настала пора узнать об истоках вековой вражды, ставшей для вампира-воительницы Селин и Майкла, полуоборотня-получеловека, проклятьем и смыслом существования.

Сражаясь с могущественными врагами из обоих кланов, древними магистрами смерти, они познают кровавую интригу и запретную любовь, чтобы в сумраке ночи раскрыть тайну своего происхождения и своего наследия. Их ждет великая битва, которая покончит с вечным противостоянием — последняя схватка ради окончания всех войн, в которой бессмертные должны понести кару и расплатиться за свои злодеяния…
Рейтинг:

Качество: BDRip | [b]Формат: MP4 | Видео кодек: XviD | Аудио кодек: AAC
Видео: 640x264 (AR 2.40:1), 761 Kbps, 23.976 fps | Аудио: 128 Kbps, 48.0 KHz, 2ch, Stereo[/b]
General
Complete name : K:\Torrents\Мои раздачи\[VIDEO4PDA] Underworld. Quadrilogy\Underworld.Evolution.2006.BluRay.mp4
Format : MPEG-4
Format profile : Base Media / Version 2
Codec ID : mp42
File size : 678 MiB
Duration : 1h 46mn
Overall bit rate mode : Variable
Overall bit rate : 891 Kbps
Encoded date : UTC 2011-05-22 13:48:37
Tagged date : UTC 2011-05-22 13:48:37

Video
ID : 201
Format : MPEG-4 Visual
Format profile : Advanced [email protected]
Format settings, BVOP : No
Format settings, QPel : No
Format settings, GMC : No warppoints
Format settings, Matrix : Default (H.263)
Codec ID : 20
Duration : 1h 46mn
Bit rate mode : Variable
Bit rate : 761 Kbps
Maximum bit rate : 4 338 Kbps
Width : 640 pixels
Height : 264 pixels
Display aspect ratio : 2.40:1
Frame rate mode : Constant
Frame rate : 23.976 fps
Color space : YUV
Chroma subsampling : 4:2:0
Bit depth : 8 bits
Scan type : Progressive
Compression mode : Lossy
Bits/(Pixel*Frame) : 0.188
Stream size : 579 MiB (85%)
Writing library : XviD 61
Encoded date : UTC 2011-05-22 13:48:37
Tagged date : UTC 2011-05-22 13:49:16

Audio
ID : 101
Format : AAC
Format/Info : Advanced Audio Codec
Format profile : LC
Codec ID : 40
Duration : 1h 46mn
Bit rate mode : Variable
Bit rate : 128 Kbps
Maximum bit rate : 135 Kbps
Channel(s) : 2 channels
Channel positions : Front: L R
Sampling rate : 48.0 KHz
Compression mode : Lossy
Stream size : 97.4 MiB (14%)
Encoded date : UTC 2011-05-22 13:49:13
Tagged date : UTC 2011-05-22 13:49:16



Другой мир: Восстание ликанов / Underworld: Rise of the Lycans
«У каждой Войны Есть Начало»
Год выпуска: 2009
[b]Продолжительность:
01:32:28
Производство: США, Новая Зеландия
Жанр: фэнтези, боевик, триллер, приключения
Перевод: Профессиональный (полное дублирование) [Лицензия][/b]
Субтитры: нет
Дата мировой премьеры: 22 января 2009
Режиссер: Патрик Татопулос / Patrick Tatopoulos
Актеры: Майкл Шин, Билл Найи, Рона Митра, Стивен Макинтош, Кевин Гревье, Дэвид Эштон, Джеральдин Брофи, Александр Кэрролл, Элизабет Хоторн
Описание фильма:
История, прослеживающая происхождение вековой кровной мести, между аристократическими вампирами, известными как Торговцы смертью и их рабами. Молодой ликан по имени Люциан — мощный лидер, который сплачивает оборотней, чтобы выступить против Виктора, жестокого короля вампиров, который поработил их. К Люциану присоединяется Соня, и помогает ему в его борьбе против смертоносной армии торговцев смертью и борьбе за свободу ликанов.
Рейтинг:

Качество: BDRip | [b]Формат: MP4 | Видео кодек: XviD | Аудио кодек: AAC
Видео: 640x264 (AR 2.40:1), 764 Kbps, 23.976 fps | Аудио: 128 Kbps, 48.0 KHz, 2ch, Stereo[/b]
General
Complete name : K:\Torrents\Мои раздачи\[VIDEO4PDA] Underworld. Quadrilogy\Underworld.Rise.of.the.Lycans.2009.BluRay.mp4
Format : MPEG-4
Format profile : Base Media / Version 2
Codec ID : mp42
File size : 592 MiB
Duration : 1h 32mn
Overall bit rate mode : Variable
Overall bit rate : 895 Kbps
Encoded date : UTC 2011-05-22 20:50:48
Tagged date : UTC 2011-05-22 20:50:48

Video
ID : 201
Format : MPEG-4 Visual
Format profile : Advanced [email protected]
Format settings, BVOP : No
Format settings, QPel : No
Format settings, GMC : No warppoints
Format settings, Matrix : Default (H.263)
Codec ID : 20
Duration : 1h 32mn
Bit rate mode : Variable
Bit rate : 764 Kbps
Maximum bit rate : 4 281 Kbps
Width : 640 pixels
Height : 264 pixels
Display aspect ratio : 2.40:1
Frame rate mode : Constant
Frame rate : 23.976 fps
Color space : YUV
Chroma subsampling : 4:2:0
Bit depth : 8 bits
Scan type : Progressive
Compression mode : Lossy
Bits/(Pixel*Frame) : 0.189
Stream size : 506 MiB (85%)
Writing library : XviD 61
Encoded date : UTC 2011-05-22 20:50:48
Tagged date : UTC 2011-05-22 20:51:22

Audio
ID : 101
Format : AAC
Format/Info : Advanced Audio Codec
Format profile : LC
Codec ID : 40
Duration : 1h 32mn
Bit rate mode : Variable
Bit rate : 128 Kbps
Maximum bit rate : 136 Kbps
Channel(s) : 2 channels
Channel positions : Front: L R
Sampling rate : 48.0 KHz
Compression mode : Lossy
Stream size : 84.7 MiB (14%)
Encoded date : UTC 2011-05-22 20:51:20
Tagged date : UTC 2011-05-22 20:51:22



Другой мир: Пробуждение / Underworld: Awakening«Месть проснулась»
Год выпуска: 2012
[b]Продолжительность:
01:28:35
Производство: США
Жанр: ужасы, фэнтези, боевик
Перевод: Профессиональный (дублированный) [Лицензия][/b]
Субтитры: нет
Дата мировой премьеры: 19 января 2012
Режиссер: Монс Морлинд / Mans Marlind, Бьёрн Стейн / Björn Stein
Актеры: Кейт Бекинсейл, Стивен Ри, Майкл Или, Тео Джеймс, Индия Айли, Чарльз Дэнс, Кристен Холден-Рид, Сандрин Холт, Ричард Цетрон, Сэнни Ван Хетерен
Описание фильма:
Через 12 лет в состоянии, близком к коматозному, Селин узнает о существовании родной дочери Евы — гибрида вампира и ликана. И Селин необходимо помешать БиоКом создать суперликанов, которые убьют их всех.
Рейтинг:

Качество: BDRip | [b]Формат: MP4 | Видео кодек: XviD | Аудио кодек: AAC
Видео: 640x264 (AR 2.40:1), 759 Kbps, 23.976 fps | Аудио: 128 Kbps, 48.0 KHz, 2ch, Stereo[/b]
General
Complete name : K:\Torrents\Мои раздачи\[VIDEO4PDA] Underworld. Quadrilogy\Underworld.Awakening.2012.BluRay.mp4
Format : MPEG-4
Format profile : Base Media / Version 2
Codec ID : mp42
File size : 564 MiB
Duration : 1h 28mn
Overall bit rate mode : Variable
Overall bit rate : 890 Kbps
Encoded date : UTC 2012-04-18 21:44:41
Tagged date : UTC 2012-04-18 21:44:41

Video
ID : 201
Format : MPEG-4 Visual
Format profile : Advanced [email protected]
Format settings, BVOP : No
Format settings, QPel : No
Format settings, GMC : No warppoints
Format settings, Matrix : Default (H.263)
Codec ID : 20
Duration : 1h 28mn
Bit rate mode : Variable
Bit rate : 759 Kbps
Maximum bit rate : 8 007 Kbps
Width : 640 pixels
Height : 264 pixels
Display aspect ratio : 2.40:1
Frame rate mode : Constant
Frame rate : 23.976 fps
Color space : YUV
Chroma subsampling : 4:2:0
Bit depth : 8 bits
Scan type : Progressive
Compression mode : Lossy
Bits/(Pixel*Frame) : 0.187
Stream size : 481 MiB (85%)
Writing library : XviD 61
Encoded date : UTC 2012-04-18 21:44:41
Tagged date : UTC 2012-04-18 21:45:27

Audio
ID : 101
Format : AAC
Format/Info : Advanced Audio Codec
Format profile : LC
Codec ID : 40
Duration : 1h 28mn
Bit rate mode : Variable
Bit rate : 128 Kbps
Maximum bit rate : 199 Kbps
Channel(s) : 2 channels
Channel positions : Front: L R
Sampling rate : 48.0 KHz
Compression mode : Lossy
Stream size : 80.9 MiB (14%)
Encoded date : UTC 2012-04-18 21:45:24
Tagged date : UTC 2012-04-18 21:45:27

Релиз подготовлен:


Трекер:  [ 07-Май-2012 18:06 ]

  

Скачать .torrent

Размер .torrent файла 14 KB


Размер: 2.62 GB
Хэш (hash) релиза: 8780644a9bc4a9dc31ff675b6f0575b70882d747

Торренты, похожие на [VIDEO] Другой Мир. Тетралогия Underworld. Tetralogy скачать торрент

Форум Название Автор Размер S L Добавлен
Видео (Фильмы/Клипы) ·· [VIDEO] Другой мир: Тетралогия / Underworld: Tetralogy (Лен Уайзман / Len Wiseman, Патрик Татопулос / Patrick Tatopoulos, Монс Морлинд / Måns Mårli) [2003 - 2012, боевик, триллер, BDRip] [MP4, 960x] [Extended Cut, Theatrical cut] Galfimbul 95220947188.87 GB 0 0 1491653511

15:11

8-Апр-17

Еще никто не оставлял запись к записи скачать торрент [VIDEO] Другой Мир. Тетралогия Underworld. Tetralogy . Будь первым!

!Обратная связь