Liz Christensen | Flashburn 2017 | Psycho-Pass | 480p | BDRip | Dual Audio

Скачать через торрент [VIDEO] Достучаться до небес Knockin On Heavens Door бесплатно русская версия torrent активатор

Статистика раздачи
Размер:  718 MB   |    Зарегистрирован:  6 лет 2 месяца   |    .torrent скачан:  84 раза   |   
Раздают:  1  
   
загрузка...
 
Автор Сообщение

Galfimbul

avatar Galfimbul


Достучаться до небес / Knockin' On Heaven's Door
«Быстрый автомобиль, миллион марок в багажнике, и всего одна неделя жить.»

Год выпуска: 1997
[b]Продолжительность:
01:28:56
Производство: Германия, Бельгия
Жанр: боевик, драма, комедия, криминал
Перевод: Профессиональный (полное дублирование) Мосфильм[/b]
Субтитры: нет
Дата мировой премьеры: 20 февраля 1997
Режиссер: Томас Ян / Thomas Jahn
Актеры: Тиль Швайгер, Ян Йозеф Лиферс, Тьери Ван Вервеке, Мориц Блайбтрой, Хуб Стапель, Ральф Херфорт, Рутгер Хауэр
Описание фильма:
Судьба сводит героев картины в больнице, где врачи выносят им смертный приговор. Счет времени их жизней идет на часы. Дальнейшие события в фильме разворачиваются в стремительном темпе. Украв машину с миллионом немецких марок в багажнике, они сбегают из больницы.

Их преследуют наемные убийцы, они становятся грабителями поневоле, за ними гонится полиция, они попадают в бордель. Но тем не менее продолжают мчаться вперед, навстречу своей судьбе.
Рейтинг:

Качество: BDRip | [b]Формат: MP4 | Видео кодек: XviD | Аудио кодек: AAC
Видео: 640x272 (AR 2.35:1), 999 Kbps, 23.976 fps | Аудио: 128 Kbps, 48.0 KHz, 2ch, Stereo[/b]
General
Complete name : K:\Torrents\Мои раздачи\[VIDEO4PDA] Knockin on Heavens Door\Knockin on Heavens Door.1997.BDRip.mp4
Format : MPEG-4
Format profile : Base Media / Version 2
Codec ID : mp42
File size : 718 MiB
Duration : 1h 28mn
Overall bit rate mode : Variable
Overall bit rate : 1 129 Kbps
Encoded date : UTC 2012-04-19 15:16:49
Tagged date : UTC 2012-04-19 15:16:49

Video
ID : 201
Format : MPEG-4 Visual
Format profile : Advanced [email protected]
Format settings, BVOP : No
Format settings, QPel : No
Format settings, GMC : No warppoints
Format settings, Matrix : Default (H.263)
Codec ID : 20
Duration : 1h 28mn
Bit rate mode : Variable
Bit rate : 999 Kbps
Maximum bit rate : 5 598 Kbps
Width : 640 pixels
Height : 272 pixels
Display aspect ratio : 2.35:1
Frame rate mode : Constant
Frame rate : 23.976 fps
Color space : YUV
Chroma subsampling : 4:2:0
Bit depth : 8 bits
Scan type : Progressive
Compression mode : Lossy
Bits/(Pixel*Frame) : 0.239
Stream size : 635 MiB (88%)
Writing library : XviD 61
Encoded date : UTC 2012-04-19 15:16:49
Tagged date : UTC 2012-04-19 15:17:44

Audio
ID : 101
Format : AAC
Format/Info : Advanced Audio Codec
Format profile : LC
Codec ID : 40
Duration : 1h 28mn
Bit rate mode : Variable
Bit rate : 128 Kbps
Maximum bit rate : 150 Kbps
Channel(s) : 2 channels
Channel positions : Front: L R
Sampling rate : 48.0 KHz
Compression mode : Lossy
Stream size : 81.3 MiB (11%)
Encoded date : UTC 2012-04-19 15:17:41
Tagged date : UTC 2012-04-19 15:17:44
Релиз подготовлен:



Трекер:  [ 07-Май-2012 18:06 ]

  

Скачать .torrent

Размер .torrent файла 14 KB


Размер: 718 MB
Хэш (hash) релиза: 12f5e28fa31161d8f705c1784b525d41ffe6a124

Еще никто не оставлял запись к записи скачать торрент [VIDEO] Достучаться до небес Knockin On Heavens Door . Будь первым!

!Обратная связь