Guardianes de Oz | Eps29 Vice - Season 5 (2017) | Jackie Chan Adventures: ...

Скачать через торрент [MULT] Атлантида: Затерянный мир Atlantis: The Lost Empire бесплатно русская версия torrent активатор

Статистика раздачи
Размер:  464 MB   |    Зарегистрирован:  6 лет 2 месяца   |    .torrent скачан:  33 раза   |   
Раздают:  1  
   
загрузка...
 
Автор Сообщение

Galfimbul

avatar Galfimbul


Атлантида: Затерянный мир / Atlantis: The Lost Empire
Год выпуска: 2001

Страна: США
Жанр: Анимация, Фантастика
Продолжительность: 01:31:00
Перевод: Профессиональный (полное дублирование)
Русские субтитры: нет
Режиссер: Кирк Уайз, Гэри Трусдейл
Описание: Атлантида... Мечтою найти легендарный затонувший в пучинах океана остров грезили многие смельчаки. Но только юному картографу Майло Тэтчу повезло: в 1914 году в его руки попал таинственный дневник, указывающий путь к Затерянной империи.И вот уже самая могучая подводная лодка в мире под командованием неустрашимого капитана Рурка выходит в открытый океан.
Майло и его спутников ждет множество незабываемых приключений, превосходящих все похождения капитана Немо: схватка с морским чудовищем, древние загадки, буйство стихий, мистические силы и даже встреча с цивилизацией атлантов! И это лишь малая толика того, что ждет героев на их пути к тайнам великой Атлантиды.
Качество: DVDRip
Формат: AVI
Видео кодек: XviD
Аудио кодек: MP3
Видео: XVID 640x480 25.00fps 580Kbps
Аудио: MPEG Audio Layer 3 48000Hz stereo 116Kbps
  
ОбщееПолное имя : D:\Атлантида Затерянный мир.aviФормат : AVIФормат/Информация : Audio Video InterleaveРазмер файла : 464 МбайтПродолжительность : 1 ч. 31 м.Режим общего битрейта : ПеременныйОбщий поток : 707 Кбит/секПрограмма кодирования : VirtualDubMod 1.5.10.3 | www.virtualdub-fr.org || (build 2550/release)Библиотека кодирования : VirtualDubMod build 2550/release

ВидеоИдентификатор : 0Формат : MPEG-4 VisualПрофиль формата : Advanced [email protected]Параметр BVOP формата : 2Параметр QPel формата : НетПараметр GMC формата : Без точки переходаПараметр матрицы формата : Default (H.263)Режим смешивания : Сжатый битовый потокИдентификатор кодека : XVIDИдентификатор кодека/Подсказка : XviDПродолжительность : 1 ч. 31 м.Битрейт : 577 Кбит/секШирина : 640 пикселейВысота : 480 пикселейСоотношение сторон : 4:3Частота кадров : 25,000 кадров/секЦветовое пространство : YUVСубдискретизация насыщенности : 4:2:0Битовая глубина : 8 битТип развёртки : ПрогрессивнаяМетод сжатия : С потерямиБит/(Пиксели*Кадры) : 0.075Размер потока : 379 Мбайт (82%)Библиотека кодирования : XviD 1.2.1 (UTC 2008-12-04)

АудиоИдентификатор : 1Формат : MPEG AudioВерсия формата : Version 1Профиль формата : Layer 3Режим : Joint stereoРасширение режима : MS StereoИдентификатор кодека : 55Идентификатор кодека/Подсказка : MP3Продолжительность : 1 ч. 31 м.Вид битрейта : ПеременныйБитрейт : 117 Кбит/секНоминальный битрейт : 128 Кбит/секКаналы : 2 каналаЧастота : 48,0 КГцМетод сжатия : С потерямиРазмер потока : 76,8 Мбайт (17%)Выравнивание : Соединение по промежуткамПродолжительность промежутка : 24 мс. (0,60 видеокадр)Время предзагрузки промежутка : 157 мс.Библиотека кодирования : LAME3.98rНастройки программы : -m j -V 4 -q 2 -lowpass 17 --abr 128


Трекер:  [ 07-Май-2012 23:20 ]

  

Скачать .torrent

Размер .torrent файла 18 KB


Размер: 464 MB
Хэш (hash) релиза: 5ae6c056e442ce319c2ec12ceade451fbc440aa1

Еще никто не оставлял запись к записи скачать торрент [MULT] Атлантида: Затерянный мир Atlantis: The Lost Empire . Будь первым!

!Обратная связь