Зарубежные сериалы от R.G.Generalfilm | Google + | Зарубежные фильмы

Скачать через торрент [MULT] Все псы попадают в рай 2 All Dogs Go To Heaven 2 бесплатно русская версия torrent активатор

Статистика раздачи
Размер:  401 MB   |    Зарегистрирован:  6 лет 2 месяца   |    .torrent скачан:  39 раз   |   
Раздают:  1  
   
загрузка...
 
Автор Сообщение

Galfimbul

avatar Galfimbul


Все псы попадают в рай 2 / All Dogs Go To Heaven 2
Год выпуска: 2006

Страна: США
Жанр: Мультфильм, семейный
Продолжительность: 01:19:19
Перевод: Профессиональный (многоголосый, закадровый)
Русские субтитры: нет
Режиссер: Пол Сабелла, Лэрри Лекер / Paul Sabella, Larry Leker
Описание: Сказочное музыкальное представление! Приготовьтесь! Вас ждет множество забавных и волнительных ситуаций, в которые попадают уже полюбившиеся Вам герои этого очаровательного семейного приключения. Все собаки могут попасть в рай... А некоторые счастливчики могут даже вернуться обратно на землю. Именно это и случается, когда озорной пес Чарли Баркин (его озвучивает Чарли Шин) под предлогом найти украденный из рая Волшебный Рожок, вызвался добровольцем. Вместе с ним назад на землю попадает его верный приятель Итчи, только что попавший в рай (голос Дома де Луиса). Но повеселиться не удается - на землю они вернулись бесплотными призраками. Чарли встречает собаку своей мечты - Сашу (озвучивает Шина Истон). Как с ней познакомиться? Чарли готов продать душу дьяволу, только бы обрести плоть и кровь. Чарли предстоит испытать себя в схватке со злодеями и преодолеть множество препятствий, чтобы получить расположение Саши, вернуть небесный рожок в рай и получить в конце своего задания поистине райский подарок! В мультфильме звучат очаровательные мелодии обладателей премии `Грэмми` Барри Манна и Синтии Уэйл...
Качество: DVDRip
Формат: AVI
Видео кодек: XviD
Аудио кодек: MP3
Видео: XVID 640x368 25.00fps 580Kbps
Аудио: MPEG Audio Layer 3 48000Hz stereo 115Kbps
  
ОбщееПолное имя : D:\Vse_Psy_Popadayut_V_Ray_2.aviФормат : AVIФормат/Информация : Audio Video InterleaveРазмер файла : 401 МбайтПродолжительность : 1 ч. 19 м.Режим общего битрейта : ПеременныйОбщий поток : 707 Кбит/секПрограмма кодирования : VirtualDubMod 1.5.10.3 | www.virtualdub-fr.org || (build 2550/release)Библиотека кодирования : VirtualDubMod build 2550/release

ВидеоИдентификатор : 0Формат : MPEG-4 VisualПрофиль формата : Advanced [email protected]Параметр BVOP формата : 2Параметр QPel формата : НетПараметр GMC формата : Без точки переходаПараметр матрицы формата : Default (H.263)Режим смешивания : Сжатый битовый потокИдентификатор кодека : XVIDИдентификатор кодека/Подсказка : XviDПродолжительность : 1 ч. 19 м.Битрейт : 579 Кбит/секШирина : 640 пикселейВысота : 368 пикселейСоотношение сторон : 16:9Частота кадров : 25,000 кадров/секЦветовое пространство : YUVСубдискретизация насыщенности : 4:2:0Битовая глубина : 8 битТип развёртки : ПрогрессивнаяМетод сжатия : С потерямиБит/(Пиксели*Кадры) : 0.098Размер потока : 329 Мбайт (82%)Библиотека кодирования : XviD 1.2.1 (UTC 2008-12-04)

АудиоИдентификатор : 1Формат : MPEG AudioВерсия формата : Version 1Профиль формата : Layer 3Режим : Joint stereoРасширение режима : MS StereoИдентификатор кодека : 55Идентификатор кодека/Подсказка : MP3Продолжительность : 1 ч. 19 м.Вид битрейта : ПеременныйБитрейт : 115 Кбит/секНоминальный битрейт : 128 Кбит/секКаналы : 2 каналаЧастота : 48,0 КГцМетод сжатия : С потерямиРазмер потока : 65,4 Мбайт (16%)Выравнивание : Соединение по промежуткамПродолжительность промежутка : 24 мс. (0,60 видеокадр)Время предзагрузки промежутка : 238 мс.Библиотека кодирования : LAME3.98rНастройки программы : -m j -V 4 -q 2 -lowpass 17 --abr 128


Трекер:  [ 07-Май-2012 23:20 ]

  

Скачать .torrent

Размер .torrent файла 16 KB


Размер: 401 MB
Хэш (hash) релиза: 45d35ec2ef3591c8e8d5d6b01cffe9abd6d522b2

Еще никто не оставлял запись к записи скачать торрент [MULT] Все псы попадают в рай 2 All Dogs Go To Heaven 2 . Будь первым!

!Обратная связь