Bia Ribeiro | Mysteries and Thrillers | Sarah Duck

Скачать через торрент [SERIAL] Потерянная комната The Lost Room бесплатно русская версия torrent активатор

Статистика раздачи
Размер:  907 MB   |    Зарегистрирован:  6 лет 2 месяца   |    .torrent скачан:  70 раз   |   
Раздают:  1  
   
загрузка...
 
Автор Сообщение

Galfimbul

avatar Galfimbul


Потерянная комната / The Lost Room

Год выпуска: 2006

Страна: США
Жанр: Научная фантастика, Мистика, Приключения, Триллер
Продолжительность: (01:27:00)x3
Перевод: Любительский (двухголосый) [LostFilm]
Русские субтитры: нет
Режиссер: Крэйг Р. Бэксли
В ролях: Питер Краузе, Джулианна Маргулис, Питер Джекобсон, Деннис Кристофер, Эйприл Грэйс, Эль Фаннинг, Кевин Поллак, Бенжамин Петри, Кристофер Бауэр, Харриет Сэнсом Харрис

Описание: Что если весь мир устроен не так просто, как нам кажется? Что если самые простые бытовые предметы обладают свойствами, которые не поддаются объяснению? И что если самый близкий Вам человек оказался в плену этих мистических событий?

Предлагаем вам присоединиться к детективу Джо Миллеру и другим героям новейшего телефильма «Пропавшая комната» и узнать всю правду о том, что случилось в десятом номере мотеля «Саншайн» и как это изменило судьбу всего мира.

Качество: DVDRip
Формат: 3GP
Видео кодек: MPEG4
Аудио кодек: AAC
Видео: 320x176 (16:9), 29,970 fps, 350 kbps
Аудио: AAC, 48KHz, (2 chnls, L R), 128 kbps
Общее
Формат : MPEG-4
Профиль формата : 3GPP Media Release 4
Идентификатор кодека : 3gp4
Размер файла : 303 Мбайт
Продолжительность : 1 ч. 27 м.
Общий поток : 484 Кбит/сек

Видео
Идентификатор : 1
Формат : MPEG-4 Visual
Профиль формата : Advanced [email protected]
Параметр BVOP формата : Да
Параметр QPel формата : Нет
Параметр GMC формата : Без точки перехода
Параметр матрицы формата : Default (H.263)
Идентификатор кодека : 20
Продолжительность : 1 ч. 27 м.
Вид битрейта : Постоянный
Битрейт : 350 Кбит/сек
Ширина : 320 пикселей
Высота : 176 пикселей
Соотношение сторон : 16:9
Режим частоты кадров : Постоянный
Частота кадров : 29,970 кадров/сек
Цветовое пространство : YUV
Субдискретизация насыщенности : 4:2:0
Битовая глубина : 8 бит
Тип развёртки : Прогрессивная
Метод сжатия : С потерями
Бит/(Пиксели*Кадры) : 0.207
Размер потока : 219 Мбайт (72%)
Библиотека кодирования : Lavc53.8.0

Аудио
Идентификатор : 2
Формат : AAC
Формат/Информация : Advanced Audio Codec
Профиль формата : LC
Идентификатор кодека : 40
Продолжительность : 1 ч. 27 м.
Вид битрейта : Постоянный
Битрейт : 128 Кбит/сек
Каналы : 2 канала
Расположение каналов : Front: L R
Частота : 48,0 КГц
Метод сжатия : С потерями
Размер потока : 80,0 Мбайт (26%)
Язык : Russian
Общее
Формат : MPEG-4
Профиль формата : 3GPP Media Release 4
Идентификатор кодека : 3gp4
Размер файла : 302 Мбайт
Продолжительность : 1 ч. 27 м.
Общий поток : 484 Кбит/сек

Видео
Идентификатор : 1
Формат : MPEG-4 Visual
Профиль формата : Advanced [email protected]
Параметр BVOP формата : Да
Параметр QPel формата : Нет
Параметр GMC формата : Без точки перехода
Параметр матрицы формата : Default (H.263)
Идентификатор кодека : 20
Продолжительность : 1 ч. 27 м.
Вид битрейта : Постоянный
Битрейт : 350 Кбит/сек
Ширина : 320 пикселей
Высота : 176 пикселей
Соотношение сторон : 16:9
Режим частоты кадров : Постоянный
Частота кадров : 29,970 кадров/сек
Цветовое пространство : YUV
Субдискретизация насыщенности : 4:2:0
Битовая глубина : 8 бит
Тип развёртки : Прогрессивная
Метод сжатия : С потерями
Бит/(Пиксели*Кадры) : 0.207
Размер потока : 218 Мбайт (72%)
Библиотека кодирования : Lavc53.8.0

Аудио
Идентификатор : 2
Формат : AAC
Формат/Информация : Advanced Audio Codec
Профиль формата : LC
Идентификатор кодека : 40
Продолжительность : 1 ч. 27 м.
Вид битрейта : Постоянный
Битрейт : 128 Кбит/сек
Каналы : 2 канала
Расположение каналов : Front: L R
Частота : 48,0 КГц
Метод сжатия : С потерями
Размер потока : 79,4 Мбайт (26%)
Язык : Russian
Общее
Формат : MPEG-4
Профиль формата : 3GPP Media Release 4
Идентификатор кодека : 3gp4
Размер файла : 302 Мбайт
Продолжительность : 1 ч. 27 м.
Общий поток : 484 Кбит/сек

Видео
Идентификатор : 1
Формат : MPEG-4 Visual
Профиль формата : Advanced [email protected]
Параметр BVOP формата : Да
Параметр QPel формата : Нет
Параметр GMC формата : Без точки перехода
Параметр матрицы формата : Default (H.263)
Идентификатор кодека : 20
Продолжительность : 1 ч. 27 м.
Вид битрейта : Постоянный
Битрейт : 350 Кбит/сек
Ширина : 320 пикселей
Высота : 176 пикселей
Соотношение сторон : 16:9
Режим частоты кадров : Постоянный
Частота кадров : 29,970 кадров/сек
Цветовое пространство : YUV
Субдискретизация насыщенности : 4:2:0
Битовая глубина : 8 бит
Тип развёртки : Прогрессивная
Метод сжатия : С потерями
Бит/(Пиксели*Кадры) : 0.207
Размер потока : 218 Мбайт (72%)
Библиотека кодирования : Lavc53.8.0

Аудио
Идентификатор : 2
Формат : AAC
Формат/Информация : Advanced Audio Codec
Профиль формата : LC
Идентификатор кодека : 40
Продолжительность : 1 ч. 27 м.
Вид битрейта : Постоянный
Битрейт : 128 Кбит/сек
Каналы : 2 канала
Расположение каналов : Front: L R
Частота : 48,0 КГц
Метод сжатия : С потерями
Размер потока : 79,8 Мбайт (26%)
Язык : Russian
1 Серия
2 Серия
3 Серия


Трекер:  [ 08-Май-2012 10:01 ]

  

Скачать .torrent

Размер .torrent файла 18 KB


Размер: 907 MB
Хэш (hash) релиза: fffc419719625018ea0b3104db8941f99cd2c15b

Торренты, похожие на [SERIAL] Потерянная комната The Lost Room скачать торрент

Форум Название Автор Размер S L Добавлен
Видео (Фильмы/Клипы) ·· [SERIAL] Потерянная комната / The Lost Room / Сезон: 1 / Серии: 1-3 из 3 (Крэйг Р. Бэксли / Craig R. Baxley) [2006, фантастика, фэнтези, боевик, детектив, WEBRip] [MP4, 640x] MVO Galfimbul 23562340522.19 GB 0 0 1472047623

17:07

24-Авг-16

Еще никто не оставлял запись к записи скачать торрент [SERIAL] Потерянная комната The Lost Room . Будь первым!

!Обратная связь