Rush Hour 2
adidas predator 18 3 fg 2018

Скачать через торрент [MULT] Однажды в лесу Once Upon a Forest бесплатно русская версия torrent активатор

Статистика раздачи
Размер:  345 MB   |    Зарегистрирован:  5 лет 11 месяцев   |    .torrent скачан:  33 раза   |   
Раздают:  1  
   
загрузка...
 
Автор Сообщение

Galfimbul

avatar Galfimbul


Однажды в лесу / Once Upon a Forest
Год выпуска: 1993

Страна: США
Жанр: Приключения, семейный, мультфильм
Продолжительность: 01:07:52
Перевод: Профессиональный (полное дублирование)
Русские субтитры: нет
Режиссер: Чарльз Гросвенор, Дэвид Микенер
Описание: Лесная школа, в которой, в свободной форме, маленькие пушистики познают мир. Учит их старый, мудрый барсук Корнелиус. Всего в классе учатся 4 ученика — Милая мышка Эбигель, крот Эдгар, ежик Рассел и, самая маленькая из класса, девочка-барсучёнок Мишель. Во время одного из уроков на природе они обнаруживают асфальтовую дорогу и становятся свидетелями аварии грузовика с цистерной, который перевозил химические отходы. Цистерна, как и положено ей, дала течь и смертоносные испарения потекли в сторону поселения пушистиков. В результате аварии серьезно отравилась Мишель, и учитель Корнелиус отправил оставшихся учеников в трудное путешествие в соседний лес за лекарственной травой.
Качество: DVDRip
Формат: AVI
Видео кодек: XviD
Аудио кодек: MP3
Видео: XVID 640x464 25.00fps ~580Kbps
Аудио: MPEG Audio Layer 3 48000Hz stereo 119Kbps
  
ОбщееПолное имя : D:\Odnazhdy.v.lesu.1993.D.DVD.aviФормат : AVIФормат/Информация : Audio Video InterleaveРазмер файла : 345 МбайтПродолжительность : 1 ч. 7 м.Режим общего битрейта : ПеременныйОбщий поток : 711 Кбит/секПрограмма кодирования : VirtualDubMod 1.5.10.3 | www.virtualdub-fr.org || (build 2550/release)Библиотека кодирования : VirtualDubMod build 2550/release

ВидеоИдентификатор : 0Формат : MPEG-4 VisualПрофиль формата : Advanced [email protected]Параметр BVOP формата : 2Параметр QPel формата : НетПараметр GMC формата : Без точки переходаПараметр матрицы формата : Default (H.263)Режим смешивания : Сжатый битовый потокИдентификатор кодека : XVIDИдентификатор кодека/Подсказка : XviDПродолжительность : 1 ч. 7 м.Битрейт : 578 Кбит/секШирина : 640 пикселейВысота : 464 пикселяСоотношение сторон : 1,379Частота кадров : 25,000 кадров/секЦветовое пространство : YUVСубдискретизация насыщенности : 4:2:0Битовая глубина : 8 битТип развёртки : ПрогрессивнаяМетод сжатия : С потерямиБит/(Пиксели*Кадры) : 0.078Размер потока : 281 Мбайт (81%)Библиотека кодирования : XviD 1.2.1 (UTC 2008-12-04)

АудиоИдентификатор : 1Формат : MPEG AudioВерсия формата : Version 1Профиль формата : Layer 3Режим : Joint stereoРасширение режима : MS StereoИдентификатор кодека : 55Идентификатор кодека/Подсказка : MP3Продолжительность : 1 ч. 7 м.Вид битрейта : ПеременныйБитрейт : 120 Кбит/секНоминальный битрейт : 128 Кбит/секКаналы : 2 каналаЧастота : 48,0 КГцМетод сжатия : С потерямиРазмер потока : 58,2 Мбайт (17%)Выравнивание : Соединение по промежуткамПродолжительность промежутка : 24 мс. (0,60 видеокадр)Время предзагрузки промежутка : 153 мс.Библиотека кодирования : LAME3.98rНастройки программы : -m j -V 4 -q 2 -lowpass 17 --abr 128


Трекер:  [ 07-Май-2012 23:21 ]

  

Скачать .torrent

Размер .torrent файла 14 KB


Размер: 345 MB
Хэш (hash) релиза: ab21fb72ad46e9eface3e01aefafe27be93137cf

Еще никто не оставлял запись к записи скачать торрент [MULT] Однажды в лесу Once Upon a Forest . Будь первым!

!Обратная связь