Gunslinger Girl | Better Call Saul S03E01 1080p NF WEBRip DD5 1 x264 ViSUM rarbg | Mystery, Thriller Suspense

Скачать через торрент [MULT] Десять заповедей The Ten Commandments бесплатно русская версия torrent активатор

Статистика раздачи
Размер:  427 MB   |    Зарегистрирован:  6 лет 2 месяца   |    .torrent скачан:  27 раз   |   
Раздают:  1  
   
загрузка...
 
Автор Сообщение

Galfimbul

avatar Galfimbul


Десять заповедей / The Ten Commandments
Год выпуска: 2007

Страна: США
Жанр: семейный, мультфильм
Продолжительность: 01:24:30
Перевод: Профессиональный (многоголосый, закадровый)
Русские субтитры: нет
Режиссер: Джон Стронак / John Stronach, Билл Бойс / Bill Boyce
В ролях: Бен Кингсли, Кристиан Слэйтер, Альфред Молина, Эллиотт Гулд
Описание: Фильм повествует о знаменитом библейском персонаже Моисее, о его рождении, возмужании, культовом исходе евреев из Египта.
Качество: DVDRip
Формат: AVI
Видео кодек: XviD
Аудио кодек: MP3
Видео: XVID 640x352 25.00fps ~580Kbps
Аудио: MPEG Audio Layer 3 48000Hz stereo 114Kbps
  
ОбщееПолное имя : D:\Desyat.zapovedey. 2007.DVDRip.aviФормат : AVIФормат/Информация : Audio Video InterleaveРазмер файла : 427 МбайтПродолжительность : 1 ч. 24 м.Режим общего битрейта : ПеременныйОбщий поток : 706 Кбит/секПрограмма кодирования : VirtualDubMod 1.5.10.3 | www.virtualdub-fr.org || (build 2550/release)Библиотека кодирования : VirtualDubMod build 2550/release

ВидеоИдентификатор : 0Формат : MPEG-4 VisualПрофиль формата : Advanced [email protected]Параметр BVOP формата : 2Параметр QPel формата : НетПараметр GMC формата : Без точки переходаПараметр матрицы формата : Default (H.263)Режим смешивания : Сжатый битовый потокИдентификатор кодека : XVIDИдентификатор кодека/Подсказка : XviDПродолжительность : 1 ч. 24 м.Битрейт : 578 Кбит/секШирина : 640 пикселейВысота : 352 пикселяСоотношение сторон : 16:9Частота кадров : 25,000 кадров/секЦветовое пространство : YUVСубдискретизация насыщенности : 4:2:0Битовая глубина : 8 битТип развёртки : ПрогрессивнаяМетод сжатия : С потерямиБит/(Пиксели*Кадры) : 0.103Размер потока : 349 Мбайт (82%)Библиотека кодирования : XviD 1.2.1 (UTC 2008-12-04)

АудиоИдентификатор : 1Формат : MPEG AudioВерсия формата : Version 1Профиль формата : Layer 3Режим : Joint stereoРасширение режима : MS StereoИдентификатор кодека : 55Идентификатор кодека/Подсказка : MP3Продолжительность : 1 ч. 24 м.Вид битрейта : ПеременныйБитрейт : 115 Кбит/секНоминальный битрейт : 128 Кбит/секКаналы : 2 каналаЧастота : 48,0 КГцМетод сжатия : С потерямиРазмер потока : 69,4 Мбайт (16%)Выравнивание : Соединение по промежуткамПродолжительность промежутка : 24 мс. (0,60 видеокадр)Время предзагрузки промежутка : 522 мс.Библиотека кодирования : LAME3.98rНастройки программы : -m j -V 4 -q 2 -lowpass 17 --abr 128


Трекер:  [ 07-Май-2012 23:21 ]

  

Скачать .torrent

Размер .torrent файла 17 KB


Размер: 427 MB
Хэш (hash) релиза: ea332662bee476300517aa50d6093dc6534c1076

Еще никто не оставлял запись к записи скачать торрент [MULT] Десять заповедей The Ten Commandments . Будь первым!

!Обратная связь