Anime Maga | épisode 2 streaming Whoever He Is | Coders at Work

Скачать через торрент [VIDEO] Доктор Стрейнджлав Dr. Strangelove бесплатно русская версия torrent активатор

Статистика раздачи
Размер:  328 MB   |    Зарегистрирован:  6 лет 2 месяца   |    .torrent скачан:  69 раз   |   
Раздают:  1  
   
загрузка...
 
Автор Сообщение

Galfimbul

avatar Galfimbul


Доктор Стрейнджлав / Dr. Strangelove

Год выпуска: 1964

Страна: Великобритания
Жанр: комедия, триллер
Продолжительность: 01:34:00
Перевод: Профессиональный (многоголосый, закадровый) [Первый канал]
Русские субтитры: нет
Режиссер: Стэнли Кубрик / Stanley Kubrick
В ролях: Питер Селлерс, Джордж К. Скотт, Стерлинг Хейден, Кинен Уинн, Слим Пикенс, Питер Булл, Джеймс Эрл Джонс, Трейси Рид, Джек Крили, Фрэнк Берри

Описание: Одержимый мыслью о том, что коммунисты намереваются украсть у американцев их «бесценные телесные соки», генерал Джек Д. Риппер, командир военно-воздушной базы посылает эскадрилью бомбардировщиков с ядерным оружием бомбить СССР.

Президент США Маффи пытается спасти положение, он собирает своих советников, включая доблестного генерала Тергидсона и прикованного к инвалидной коляске бывшего нацистского ученого доктора Стрейнджлава. Придется сообщить обо всем русским, чтобы те сбили самолеты.

Однако советский посол информирует президента о том, что в Советском Союзе сконструировали тайное оружие возмездия, которое автоматически запускает ракеты, если хоть одна бомба упадет на территорию страны.

Тем временем британский офицер Мэндрэйк пытается узнать у Риппера код отзыва бомбардировщиков. В конце концов, все самолеты будут либо сбиты, либо отозваны, но одному лихому летчику, майору Т. Дж. «Кинг» Конгу, удастся прорваться…

Качество: BDRip
Формат: 3GP
Видео кодек: MPEG4
Аудио кодек: AAC
Видео: 320x192 (1,66:1), 23,976 fps, 350 kbps
Аудио: AAC, 48KHz, (2 chnls, L R), 128 kbps
Общее
Формат : MPEG-4
Профиль формата : 3GPP Media Release 4
Идентификатор кодека : 3gp4
Размер файла : 328 Мбайт
Продолжительность : 1 ч. 34 м.
Общий поток : 484 Кбит/сек
Название фильма : Dr. Strangelove or: How I Learned to Stop Worrying and Love the Bomb

Видео
Идентификатор : 1
Формат : MPEG-4 Visual
Профиль формата : Advanced [email protected]
Параметр BVOP формата : Да
Параметр QPel формата : Нет
Параметр GMC формата : Без точки перехода
Параметр матрицы формата : Default (H.263)
Идентификатор кодека : 20
Продолжительность : 1 ч. 34 м.
Вид битрейта : Постоянный
Битрейт : 350 Кбит/сек
Ширина : 320 пикселей
Высота : 192 пикселя
Соотношение сторон : 1,660
Соотношение сторон в оригинале : 1,659
Режим частоты кадров : Постоянный
Частота кадров : 23,976 кадра/сек
Цветовое пространство : YUV
Субдискретизация насыщенности : 4:2:0
Битовая глубина : 8 бит
Тип развёртки : Прогрессивная
Метод сжатия : С потерями
Бит/(Пиксели*Кадры) : 0.238
Размер потока : 237 Мбайт (72%)
Библиотека кодирования : Lavc53.8.0
Язык : English

Аудио
Идентификатор : 2
Формат : AAC
Формат/Информация : Advanced Audio Codec
Профиль формата : LC
Идентификатор кодека : 40
Продолжительность : 1 ч. 34 м.
Вид битрейта : Постоянный
Битрейт : 129 Кбит/сек
Каналы : 2 канала
Расположение каналов : Front: L R
Частота : 48,0 КГц
Метод сжатия : С потерями
Размер потока : 87,1 Мбайт (27%)
Язык : Russian


Трекер:  [ 07-Май-2012 15:28 ]

  

Скачать .torrent

Размер .torrent файла 13 KB


Размер: 328 MB
Хэш (hash) релиза: 307791f02d9ef03b8253a428788b8c90931536c6

Еще никто не оставлял запись к записи скачать торрент [VIDEO] Доктор Стрейнджлав Dr. Strangelove . Будь первым!

!Обратная связь