Victor Vazquez Alonso | Confectionary | Yozakura Quartet

Скачать через торрент [VIDEO] Смертельное оружие 1-4 Lethal Weapon 1-4 бесплатно русская версия torrent активатор

Статистика раздачи
Размер:  2.94 GB   |    Зарегистрирован:  6 лет 2 месяца   |    .torrent скачан:  103 раза   |   
Раздают:  1  
   
загрузка...
 
Автор Сообщение

Galfimbul

avatar Galfimbul


Смертельное оружие: Квадрология

Смертельное оружие / Lethal Weapon
Год выпуска: 1987

Страна: США
Жанр: боевик, триллер, комедия, криминал
Продолжительность: 01:49:37
Перевод: Профессиональный (полное дублирование)
Русские субтитры: нет

Режиссер: Ричард Доннер / Richard Donner

В ролях: Мэл Гибсон, Дэнни Гловер, Гэри Бьюзи, Митч Райан, Том Аткинс, Дарлен Лав, Трэйси Вульф, Джеки Суонсон, Дэймон Хайнс, Эбони Смит

Описание: Обаяние этого вечного приключенческого сюжета о паре полицейских — в великолепной игре Гибсона и Гловера. Первый — слегка чокнутый смельчак Риггз, которому из-за его легендарного вьетнамского прошлого и не менее легендарного настоящего дали уважительную кличку «смертельное оружие». Его чернокожий напарник Мертаф — человек куда более земной, обремененный семьей и предрассудками.

Качество: BDRip
Формат: MP4
Видео кодек: XviD
Аудио кодек: AAC
Видео: XviD, 640x360, 16:9, 768 Kbps, 23.976 fps
Аудио: AAC, 128 Kbps, 48.0 KHz, 2 channels
  
GeneralComplete name : D:\!РИПЫ\Новая папка\Lethal Weapon 1-4\1. Lethal Weapon (1987).mp4Format : MPEG-4Format profile : Base Media / Version 2Codec ID : mp42File size : 704 MiBDuration : 1h 49mnOverall bit rate : 898 KbpsEncoded date : UTC 2012-03-06 21:38:16Tagged date : UTC 2012-03-06 21:38:16

VideoID : 201Format : MPEG-4 VisualFormat profile : Advanced [email protected] settings, BVOP : NoFormat settings, QPel : NoFormat settings, GMC : No warppointsFormat settings, Matrix : Default (H.263)Codec ID : 20Duration : 1h 49mnBit rate mode : VariableBit rate : 768 KbpsMaximum bit rate : 3 829 KbpsWidth : 640 pixelsHeight : 360 pixelsDisplay aspect ratio : 16:9Frame rate mode : VariableFrame rate : 23.931 fpsOriginal frame rate : 23.976 fpsMinimum frame rate : 0.315 fpsMaximum frame rate : 23.976 fpsColor space : YUVChroma subsampling : 4:2:0Bit depth : 8 bitsScan type : ProgressiveCompression mode : LossyBits/(Pixel*Frame) : 0.139Stream size : 602 MiB (85%)Title : Imported with GPAC 0.4.6-DEV (build 1)Writing library : XviD 1.2.1 (UTC 2008-12-04)Encoded date : UTC 2012-03-06 21:38:16Tagged date : UTC 2012-03-06 21:38:45

AudioID : 101Format : AACFormat/Info : Advanced Audio CodecFormat profile : LCCodec ID : 40Duration : 1h 49mnBit rate mode : VariableBit rate : 128 KbpsMaximum bit rate : 165 KbpsChannel(s) : 2 channelsChannel positions : Front: L RSampling rate : 48.0 KHzCompression mode : LossyStream size : 100 MiB (14%)Encoded date : UTC 2012-03-06 21:38:43Tagged date : UTC 2012-03-06 21:38:45


Смертельное оружие 2 / Lethal Weapon 2
Год выпуска: 1989

Страна: США
Жанр: боевик, триллер, комедия, криминал
Продолжительность: 01:54:27
Перевод: Профессиональный (полное дублирование)
Русские субтитры: нет

Режиссер: Ричард Доннер / Richard Donner

В ролях: Мэл Гибсон, Дэнни Гловер, Джо Пеши, Джосс Экленд, Деррик О’Коннор, Пэтси Кензит, Дарлен Лав, Трэйси Вульф, Стив Кэхэн, Марк Ролстон

Описание: Зрителя вновь ждет встреча с неустанно сражающейся с преступниками парочкой друзей-полицейских (Мел Гибсон и Дэнни Гловер). Спасая собственную жизнь и жизнь главного свидетеля (Джо Пеши), они вынуждены схватиться с шайкой южноафриканских контрабандистов.

Качество: BDRip
Формат: MP4
Видео кодек: XviD
Аудио кодек: AAC
Видео: XviD, 640x272, 2.35:1, 768 Kbps, 23.976 fps
Аудио: AAC, 128 Kbps, 48.0 KHz, 2 channels
  
GeneralComplete name : D:\!РИПЫ\Новая папка\Lethal Weapon 1-4\2. Lethal Weapon 2 (1989).mp4Format : MPEG-4Format profile : Base Media / Version 2Codec ID : mp42File size : 735 MiBDuration : 1h 54mnOverall bit rate : 898 KbpsEncoded date : UTC 2012-03-07 01:19:51Tagged date : UTC 2012-03-07 01:19:51

VideoID : 201Format : MPEG-4 VisualFormat profile : Advanced [email protected] settings, BVOP : NoFormat settings, QPel : NoFormat settings, GMC : No warppointsFormat settings, Matrix : Default (H.263)Codec ID : 20Duration : 1h 54mnBit rate mode : VariableBit rate : 768 KbpsMaximum bit rate : 3 928 KbpsWidth : 640 pixelsHeight : 272 pixelsDisplay aspect ratio : 2.35:1Frame rate mode : VariableFrame rate : 23.976 fpsMinimum frame rate : 0.500 fpsMaximum frame rate : 23.976 fpsColor space : YUVChroma subsampling : 4:2:0Bit depth : 8 bitsScan type : ProgressiveCompression mode : LossyBits/(Pixel*Frame) : 0.184Stream size : 628 MiB (85%)Title : Imported with GPAC 0.4.6-DEV (build 1)Writing library : XviD 1.2.1 (UTC 2008-12-04)Encoded date : UTC 2012-03-07 01:19:51Tagged date : UTC 2012-03-07 01:20:16

AudioID : 101Format : AACFormat/Info : Advanced Audio CodecFormat profile : LCCodec ID : 40Duration : 1h 54mnBit rate mode : VariableBit rate : 128 KbpsMaximum bit rate : 145 KbpsChannel(s) : 2 channelsChannel positions : Front: L RSampling rate : 48.0 KHzCompression mode : LossyStream size : 105 MiB (14%)Encoded date : UTC 2012-03-07 01:20:15Tagged date : UTC 2012-03-07 01:20:16


Смертельное оружие 3 / Lethal Weapon 3
Год выпуска: 1992

Страна: США
Жанр: боевик, триллер, комедия, криминал
Продолжительность: 01:57:53
Перевод: Профессиональный (полное дублирование)
Русские субтитры: нет

Режиссер: Ричард Доннер / Richard Donner

В ролях: Мэл Гибсон, Дэнни Гловер, Джо Пеши, Рене Руссо, Стюарт Уилсон, Стив Кэхэн

Описание: Третий фильм о неустрашимом полицейском Риггсе. На этот раз Мартин и его напарник Роджер сталкиваются с гангстерами, похищающими оружие со склада полиции. Преступную группу, за которой тянется длинный кровавый след, возглавляет бывший сержант Джек Тревис. Найти улики против «грязного» полицейского напарникам помогает Лорна Коул — решительная женщина-полицейский, которая не останавливается перед лицом опасности и уверенно вступает в схватку с противниками...

Качество: BDRip
Формат: MP4
Видео кодек: XviD
Аудио кодек: AAC
Видео: XviD, 640x264, 2.40:1, 768 Kbps, 23.976 fps
Аудио: AAC, 128 Kbps, 48.0 KHz, 2 channels
  
GeneralComplete name : D:\!РИПЫ\Новая папка\Lethal Weapon 1-4\3. Lethal Weapon 3 (1992).mp4Format : MPEG-4Format profile : Base Media / Version 2Codec ID : mp42File size : 757 MiBDuration : 1h 57mnOverall bit rate : 898 KbpsEncoded date : UTC 2012-03-07 18:35:36Tagged date : UTC 2012-03-07 18:35:36

VideoID : 201Format : MPEG-4 VisualFormat profile : Advanced [email protected] settings, BVOP : NoFormat settings, QPel : NoFormat settings, GMC : No warppointsFormat settings, Matrix : Default (H.263)Codec ID : 20Duration : 1h 57mnBit rate mode : VariableBit rate : 768 KbpsMaximum bit rate : 3 210 KbpsWidth : 640 pixelsHeight : 264 pixelsDisplay aspect ratio : 2.40:1Frame rate mode : VariableFrame rate : 23.964 fpsOriginal frame rate : 23.976 fpsMinimum frame rate : 0.381 fpsMaximum frame rate : 23.976 fpsColor space : YUVChroma subsampling : 4:2:0Bit depth : 8 bitsScan type : ProgressiveCompression mode : LossyBits/(Pixel*Frame) : 0.190Stream size : 647 MiB (85%)Title : Imported with GPAC 0.4.6-DEV (build 1)Writing library : XviD 1.2.1 (UTC 2008-12-04)Encoded date : UTC 2012-03-07 18:35:36Tagged date : UTC 2012-03-07 18:36:14Material_Duration : 7066977Material_StreamSize : 678748566Material_FrameCount : 169350

AudioID : 101Format : AACFormat/Info : Advanced Audio CodecFormat profile : LCCodec ID : 40Duration : 1h 57mnBit rate mode : VariableBit rate : 128 KbpsMaximum bit rate : 149 KbpsChannel(s) : 2 channelsChannel positions : Front: L RSampling rate : 48.0 KHzCompression mode : LossyStream size : 108 MiB (14%)Encoded date : UTC 2012-03-07 18:36:12Tagged date : UTC 2012-03-07 18:36:14


Смертельное оружие 4 / Lethal Weapon 4
Год выпуска: 1998

Страна: США
Жанр: боевик, триллер, комедия, криминал
Продолжительность: 02:07:23
Перевод: Профессиональный (полное дублирование)
Русские субтитры: нет

Режиссер: Ричард Доннер / Richard Donner

В ролях: Мэл Гибсон, Дэнни Гловер, Джо Пеши, Рене Руссо, Крис Рок, Джет Ли, Стив Кэхэн, Ким Чан, Дарлен Лав, Трэйси Вульф

Описание: Главный герой Риггз ждет, как он надеется, сына от Лорны Коул, а Роджер — внука. Оба уже ощущают возраст, им дали звания капитанов, но сердца их все еще молоды и без приключений не могут. В этом 4-м по счету фильме их дорожки случайно пересеклись с китайскими мафиози, печатающими фальшивые деньги. В фильме есть юмор, множество перестрелок, драк, погонь, головокружительных трюков. Взрываются бензовозы, машины, корабли садятся на мель, Джет Ли показывает свое мастерство в восточных единоборствах...

Качество: BDRip
Формат: MP4
Видео кодек: XviD
Аудио кодек: AAC
Видео: XviD, 640x272, 2.35:1, 768 Kbps, 23.976 fps
Аудио: AAC, 128 Kbps, 48.0 KHz, 2 channels
  
GeneralComplete name : D:\!РИПЫ\Новая папка\Lethal Weapon 1-4\4. Lethal Weapon 4 (1998).mp4Format : MPEG-4Format profile : Base Media / Version 2Codec ID : mp42File size : 818 MiBDuration : 2h 7mnOverall bit rate : 898 KbpsEncoded date : UTC 2012-03-07 22:56:14Tagged date : UTC 2012-03-07 22:56:14

VideoID : 201Format : MPEG-4 VisualFormat profile : Advanced [email protected] settings, BVOP : NoFormat settings, QPel : NoFormat settings, GMC : No warppointsFormat settings, Matrix : Default (H.263)Codec ID : 20Duration : 2h 7mnBit rate mode : VariableBit rate : 768 KbpsMaximum bit rate : 3 884 KbpsWidth : 640 pixelsHeight : 272 pixelsDisplay aspect ratio : 2.35:1Frame rate mode : VariableFrame rate : 23.960 fpsOriginal frame rate : 23.976 fpsMinimum frame rate : 0.247 fpsMaximum frame rate : 23.976 fpsColor space : YUVChroma subsampling : 4:2:0Bit depth : 8 bitsScan type : ProgressiveCompression mode : LossyBits/(Pixel*Frame) : 0.184Stream size : 700 MiB (85%)Title : Imported with GPAC 0.4.6-DEV (build 1)Writing library : XviD 1.2.1 (UTC 2008-12-04)Encoded date : UTC 2012-03-07 22:56:14Tagged date : UTC 2012-03-07 22:56:49

AudioID : 101Format : AACFormat/Info : Advanced Audio CodecFormat profile : LCCodec ID : 40Duration : 2h 7mnBit rate mode : VariableBit rate : 128 KbpsMaximum bit rate : 211 KbpsChannel(s) : 2 channelsChannel positions : Front: L RSampling rate : 48.0 KHzCompression mode : LossyStream size : 117 MiB (14%)Encoded date : UTC 2012-03-07 22:56:48Tagged date : UTC 2012-03-07 22:56:49



Трекер:  [ 07-Май-2012 15:29 ]

  

Скачать .torrent

Размер .torrent файла 15 KB


Размер: 2.94 GB
Хэш (hash) релиза: e4fe02b07d2067772e8096851766c64e7b6c635d

Еще никто не оставлял запись к записи скачать торрент [VIDEO] Смертельное оружие 1-4 Lethal Weapon 1-4 . Будь первым!

!Обратная связь