MaDonna Grimes Dance Street Collection DVDRip NEws Links | BUNK'D saison 3 episode 13 streaming | Watch Now

Скачать через торрент [VIDEO] Корабль-призрак Ghost Ship бесплатно русская версия torrent активатор

Статистика раздачи
Размер:  583 MB   |    Зарегистрирован:  6 лет 2 месяца   |    .torrent скачан:  63 раза   |   
Раздают:  1  
   
загрузка...
 
Автор Сообщение

Galfimbul

avatar Galfimbul


Корабль-призрак / Ghost Ship

Год выпуска: 2002

Страна: США, Австралия
Жанр: Приключения, ужасы, мистика, триллер
Продолжительность: 01:30:43
Перевод: Профессиональный (полное дублирование)
Русские субтитры: нет

Режиссер: Стив Бек / Steve Beck

В ролях: Гэбриэл Бирн, Джулианна Маргулис, Рон Элдард, Десмонд Харрингтон, Айзэйя Вашингтон, Алекс Димитриадес, Карл Урбан, Эмили Браунинг, Франческа Реттондини

Описание: Морское правило гласит: любой брошенный в нейтральных водах корабль становится собственностью того, кому посчастливилось найти судно и взять его на буксир. Но команде профессиональных спасателей из этой картины, счастье изменило: их ждала жуткая и смертельная находка!
Качество: BDRip
Формат: MP4
Видео кодек: XviD
Аудио кодек: AAC
Видео: XviD, 640x360, 16:9, 768 Kbps, 23.976 fps
Аудио: AAC, 128 Kbps, 48.0 KHz, 2 channels
  
GeneralComplete name : D:\!РИПЫ\Новая папка\Ghost Ship (2002).mp4Format : MPEG-4Format profile : Base Media / Version 2Codec ID : mp42File size : 583 MiBDuration : 1h 30mnOverall bit rate : 898 KbpsEncoded date : UTC 2012-03-08 02:28:39Tagged date : UTC 2012-03-08 02:28:39

VideoID : 201Format : MPEG-4 VisualFormat profile : Advanced [email protected] settings, BVOP : NoFormat settings, QPel : NoFormat settings, GMC : No warppointsFormat settings, Matrix : Default (H.263)Codec ID : 20Duration : 1h 30mnBit rate mode : VariableBit rate : 768 KbpsMaximum bit rate : 7 456 KbpsWidth : 640 pixelsHeight : 360 pixelsDisplay aspect ratio : 16:9Frame rate mode : VariableFrame rate : 23.962 fpsOriginal frame rate : 23.976 fpsMinimum frame rate : 1.142 fpsMaximum frame rate : 23.976 fpsColor space : YUVChroma subsampling : 4:2:0Bit depth : 8 bitsScan type : ProgressiveCompression mode : LossyBits/(Pixel*Frame) : 0.139Stream size : 498 MiB (85%)Title : Imported with GPAC 0.4.6-DEV (build 1)Writing library : XviD 1.2.1 (UTC 2008-12-04)Encoded date : UTC 2012-03-08 02:28:39Tagged date : UTC 2012-03-08 02:29:01

AudioID : 101Format : AACFormat/Info : Advanced Audio CodecFormat profile : LCCodec ID : 40Duration : 1h 30mnBit rate mode : VariableBit rate : 128 KbpsMaximum bit rate : 180 KbpsChannel(s) : 2 channelsChannel positions : Front: L RSampling rate : 48.0 KHzCompression mode : LossyStream size : 82.9 MiB (14%)Encoded date : UTC 2012-03-08 02:29:00Tagged date : UTC 2012-03-08 02:29:01



Трекер:  [ 07-Май-2012 15:29 ]

  

Скачать .torrent

Размер .torrent файла 12 KB


Размер: 583 MB
Хэш (hash) релиза: ab88834165d77a7f0a41a4e5ccee6a175aaaf9e8

Еще никто не оставлял запись к записи скачать торрент [VIDEO] Корабль-призрак Ghost Ship . Будь первым!

!Обратная связь