Warhammer 40k Gladius - Relics of War [1 04] | XenForo Add-ons by Brivium 2012-2018 Brivium LLC. | Raazi.(2018).1080p.Web.Rip.HEVC.x265.AC3.ESub-DTOne.10th.Anniversary

Скачать через торрент [VIDEO] На крючке! бесплатно русская версия torrent активатор

Статистика раздачи
Размер:  729 MB   |    Зарегистрирован:  6 лет 2 месяца   |    .torrent скачан:  41 раз   |   
Раздают:  1  
   
загрузка...
 
Автор Сообщение

Galfimbul

avatar Galfimbul


На крючке!

Год выпуска: 2011
Страна: Россия
Жанр: лирическая комедия
Продолжительность: 01:30:03
Перевод: Не требуется
Русские субтитры: нет
Режиссер: Наталья Углицких
В ролях: Екатерина Вилкова, Константин Крюков, Марат Башаров, Максим Матвеев, Алексей Макаров, Валерий Николаев, Светлана Антонова, Игорь Угольников, Виктор Вержбицкий, Андрей Руденский
Описание: Тренер детской школы по фигурному катанию Рита обижена неверным возлюбленным. Тот оставил ее, чтобы жениться на сестре некоего Власова, занимающего 13-е место в списке самых богатых людей страны. Дабы отомстить несостоявшемуся жениху, Рита решает влюбить в себя этого самого Власова. Есть только одна «небольшая» проблема: никто не знает, как выглядит загадочный Власов; известно только, что он увлекается дайвингом, и проводит время инкогнито в Таиланде. В поисках Власова Рите помогает журналист Костя, — вместе с ним она и отправляется на далекий остров Тао…
Качество: BDRip
Формат: MP4
Видео кодек: H.264
Аудио кодек: AAC
Видео: H.264 640x342 23.976fps 1000Kbps 0.191b/pf
Аудио: AAC LC Stereo 48KHz 128Kbps
  
GeneralComplete name : Na.Kruchke.2011.PDArip.mp4Format : MPEG-4Format profile : Base MediaCodec ID : isomFile size : 729 MiBDuration : 1h 30mnOverall bit rate mode : VariableOverall bit rate : 1 132 KbpsWriting application : Lavf53.2.0

VideoID : 1Format : AVCFormat/Info : Advanced Video CodecFormat profile : <a href="mailto:[email protected]" class="postLink">[email protected]</a> settings, CABAC : NoFormat settings, ReFrames : 4 framesCodec ID : avc1Codec ID/Info : Advanced Video CodingDuration : 1h 30mnBit rate : 1 000 KbpsWidth : 640 pixelsHeight : 342 pixelsDisplay aspect ratio : 1.875Original display aspect ratio : 1.874Frame rate mode : ConstantFrame rate : 23.976 fpsColor space : YUVChroma subsampling : 4:2:0Bit depth : 8 bitsScan type : ProgressiveBits/(Pixel*Frame) : 0.191Stream size : 644 MiB (88%)Writing library : x264 core 116 r2042 178455cEncoding settings : cabac=0 / ref=4 / deblock=1:0:0 / analyse=0x1:0x11 / me=umh / subme=8 / psy=1 / psy_rd=0.80:0.00 / mixed_ref=0 / me_range=16 / chroma_me=1 / trellis=2 / 8x8dct=0 / cqm=0 / deadzone=21,11 / fast_pskip=0 / chroma_qp_offset=-2 / threads=1 / sliced_threads=0 / nr=0 / decimate=1 / interlaced=0 / bluray_compat=0 / constrained_intra=0 / bframes=0 / weightp=0 / keyint=240 / keyint_min=24 / scenecut=40 / intra_refresh=0 / rc_lookahead=40 / rc=2pass / mbtree=0 / bitrate=1000 / ratetol=1.0 / qcomp=0.60 / qpmin=0 / qpmax=69 / qpstep=4 / cplxblur=20.0 / qblur=0.5 / vbv_maxrate=10000 / vbv_bufsize=10000 / nal_hrd=none / ip_ratio=1.40 / aq=1:1.00

AudioID : 2Format : AACFormat/Info : Advanced Audio CodecFormat profile : LCCodec ID : 40Duration : 1h 30mnBit rate mode : VariableBit rate : 128 KbpsChannel(s) : 2 channelsChannel positions : Front: L RSampling rate : 48.0 KHzCompression mode : LossyStream size : 82.4 MiB (11%)
Пожалуйста не уходите с раздачи сразу после скачивания.

Трекер:  [ 07-Май-2012 15:29 ]

  

Скачать .torrent

Размер .torrent файла 29 KB


Размер: 729 MB
Хэш (hash) релиза: 0a8e722f5ec4d4d302f857007a671f701ec1b5a5

Еще никто не оставлял запись к записи скачать торрент [VIDEO] На крючке! . Будь первым!

!Обратная связь