My Secret Romance | Юмористическая проза | classique Cliquez pour regarder

Скачать через торрент [VIDEO] Таксист Taxi Driver бесплатно русская версия torrent активатор

Статистика раздачи
Размер:  394 MB   |    Зарегистрирован:  6 лет 2 месяца   |    .torrent скачан:  32 раза   |   
Раздают:  1  
   
загрузка...
 
Автор Сообщение

Galfimbul

avatar Galfimbul


Таксист / Taxi Driver

Год выпуска: 1976

Страна: США
Жанр: драма, криминал, триллер
Продолжительность: 01:53:49
Перевод: Профессиональный (многоголосый, закадровый) [НТВ+]
Русские субтитры: нет
Режиссер: Мартин Скорсезе / Martin Scorsese
В ролях: Роберт Де Ниро, Джоди Фостер, Сибилл Шепард, Питер Бойл, Харви Кейтель, Леонард Харрис, Альберт Брукс, Дайэнн Эбботт, Фрэнк Эду, Джино Ардито

Описание: Тусклый свет слепых фонарей, скелеты фабричных труб, задыхающихся в собственном дыму. Вавилонские башни небоскребов, все это — ад Нового времени, Нью-Йорк.

Ветеран вьетнамской войны Трэйвис Бикл ведет свое одинокое такси по ночным улицам бесконечного города, и перед ним разворачивается мрачная панорама человеческих грехов. Как ветхозаветный пророк, он надеется, что однажды небеса пошлют на землю спасительный дождь, который очистит Нью-Йорк от вековой грязи.

А когда умирает надежда, остается только ненависть. Огненный ливень обрушится на головы грешников. Таксист позаботится об этом.
Качество: BDRip
Формат: 3GP
Видео кодек: MPEG4
Аудио кодек: AAC
Видео: 320x176 (16:9), 23,976 fps, 350 kbps
Аудио: AAC, 48KHz, (2 chnls, L R), 128 kbps
Общее
Формат : MPEG-4
Профиль формата : 3GPP Media Release 4
Идентификатор кодека : 3gp4
Размер файла : 394 Мбайт
Продолжительность : 1 ч. 53 м.
Общий поток : 484 Кбит/сек
Название фильма : Taxi.Drivers.1976.Bluray.RE.x264.1080P.DTS.MySilu

Видео
Идентификатор : 1
Формат : MPEG-4 Visual
Профиль формата : Advanced [email protected]
Параметр BVOP формата : Да
Параметр QPel формата : Нет
Параметр GMC формата : Без точки перехода
Параметр матрицы формата : Default (H.263)
Идентификатор кодека : 20
Продолжительность : 1 ч. 53 м.
Вид битрейта : Постоянный
Битрейт : 350 Кбит/сек
Ширина : 320 пикселей
Высота : 176 пикселей
Соотношение сторон : 16:9
Соотношение сторон в оригинале : 16:9
Режим частоты кадров : Постоянный
Частота кадров : 23,976 кадра/сек
Цветовое пространство : YUV
Субдискретизация насыщенности : 4:2:0
Битовая глубина : 8 бит
Тип развёртки : Прогрессивная
Метод сжатия : С потерями
Бит/(Пиксели*Кадры) : 0.259
Размер потока : 285 Мбайт (72%)
Библиотека кодирования : Lavc53.8.0
Язык : English

Аудио
Идентификатор : 2
Формат : AAC
Формат/Информация : Advanced Audio Codec
Профиль формата : LC
Идентификатор кодека : 40
Продолжительность : 1 ч. 53 м.
Вид битрейта : Постоянный
Битрейт : 128 Кбит/сек
Каналы : 2 канала
Расположение каналов : Front: L R
Частота : 48,0 КГц
Метод сжатия : С потерями
Размер потока : 104 Мбайт (26%)
Язык : Russian


Трекер:  [ 07-Май-2012 15:30 ]

  

Скачать .torrent

Размер .torrent файла 16 KB


Размер: 394 MB
Хэш (hash) релиза: 7aa74a7d55590c6d4e90bc7ccb694d3f3a97584a

Еще никто не оставлял запись к записи скачать торрент [VIDEO] Таксист Taxi Driver . Будь первым!

!Обратная связь