Kore wa Ai ja Nai no de, Yoroshiku: Chapter 6 | Kamen Rider Snipe: ... | Joyous Alliance - 快樂童盟 - Episode 514

Скачать через торрент [VIDEO] День сурка Groundhog Day бесплатно русская версия torrent активатор

Статистика раздачи
Размер:  645 MB   |    Зарегистрирован:  6 лет 2 месяца   |    .torrent скачан:  64 раза   |   
Раздают:  1  
   
загрузка...
 
Автор Сообщение

Galfimbul

avatar Galfimbul




День сурка / Groundhog Day
Год выпуска: 1993
Страна: США
Жанр: Комедия
Продолжительность: 01:41:04
Перевод: Профессиональный (многоголосый, закадровый)
Русские субтитры: нет
Режиссер: Харольд Рэмис / Harold Ramis
В ролях: Билл Мюррей, Энди МакДауэлл, Мейсон Гембл, Крис Эллиотт, Стефан Тоболовски, Рик Дакоммун, Марита Герати, Энджела Пэтон, Брайан Дойл-Мюррэй, Рик Овертон
Описание: Каждый год 2 февраля в небольшом американском городке Панксатони (англ. Punxsutawney, штат Пенсильвания) проводится праздник под названием День сурка: из норы достают сурка и предсказывают по его поведению погоду. Каждый год на этот праздник в Панксатони из Питтсбурга ездит самовлюблённый и высокомерный телеобозреватель погоды Фил Коннорс (Билл Мюррей), которому до смерти надоела его работа и который ненавидит этот фестиваль в глухом городишке.
Но однажды Фил, посетив в очередной раз фестиваль сурка, не просыпается на следующий день 3 февраля… он просыпается снова 2 февраля! Он оказывается в некой петле времени, из которой нет выхода: 3 февраля просто не наступает! Фил вынужден снова и снова переживать 2 февраля на фестивале сурка, снова вести оттуда репортаж, снова возвращаться в гостиницу и так каждый новый день. Фил обращается к врачам, пробует уехать из города и даже многократно заканчивает жизнь самоубийством, но ничего не помогает — на следующий день он опять просыпается 2 февраля в 6:00 в гостинице городка Панксатони.
Качество: BDRip
Формат: MP4
Видео кодек: XviD
Аудио кодек: AAC
Видео: 640x352 (1,82:1), 763 Kbps, 23.976 fps
Аудио: 125 Kbps, 48.0 KHz, 2ch, Stereo
  
ОбщееПолное имя : D:\СинематографЪ\смартфон синематографъ\Groundhog Day.mp4Формат : MPEG-4Профиль формата : Base Media / Version 2Идентификатор кодека : mp42Размер файла : 645 МбайтПродолжительность : 1 ч. 41 м.Общий поток : 892 Кбит/секДата кодирования : UTC 2012-03-04 22:53:23Дата пометки : UTC 2012-03-04 22:54:53Программа кодирования : mp4creator 1.4.4

ВидеоИдентификатор : 1Формат : MPEG-4 VisualПрофиль формата : [email protected]Параметр BVOP формата : НетПараметр QPel формата : НетПараметр GMC формата : Без точки переходаПараметр матрицы формата : Default (H.263)Идентификатор кодека : 20Продолжительность : 1 ч. 41 м.Вид битрейта : ПеременныйБитрейт : 763 Кбит/секМаксимальный битрейт : 4240 Кбит/секШирина : 640 пикс.Высота : 352 пикс.Соотношение сторон : 16:9Режим частоты кадров : ПеременныйЧастота кадров : 23,976 кадр/секМинимальная частота кадров : 23,974 кадр/секМаксимальная частота кадров : 23,981 кадр/секЦветовое пространство : YUVПодвыборка цветности : 4:2:0Битовая глубина : 8 битТип развёртки : ПрогрессивнаяМетод сжатия : С потерямиБит/(Пиксели*Кадры) : 0.141Размер потока : 552 Мбайт (86%)Язык : EnglishДата кодирования : UTC 2012-03-04 22:53:23Дата пометки : UTC 2012-03-04 22:53:52Material_Duration : 6063898Material_StreamSize : 578527553Material_FrameCount : 145388

АудиоИдентификатор : 2Формат : AACФормат/Информация : Advanced Audio CodecПрофиль формата : LCИдентификатор кодека : 40Продолжительность : 1 ч. 41 м.Вид битрейта : ПеременныйБитрейт : 125 Кбит/секМаксимальный битрейт : 198 Кбит/секКаналы : 2 каналаРасположение каналов : Front: L RЧастота : 48,0 КГцМетод сжатия : С потерямиРазмер потока : 90,6 Мбайт (14%)Язык : EnglishДата кодирования : UTC 2012-03-04 22:54:51Дата пометки : UTC 2012-03-04 22:54:53Material_Duration : 6064363Material_StreamSize : 95044119



Приятного просмотра...



Трекер:  [ 07-Май-2012 15:30 ]

  

Скачать .torrent

Размер .torrent файла 13 KB


Размер: 645 MB
Хэш (hash) релиза: d257b1f41ab08ccfa5cace3ada59052cb5d76c92

Еще никто не оставлял запись к записи скачать торрент [VIDEO] День сурка Groundhog Day . Будь первым!

!Обратная связь