Aplicación de APKPure | The Last Ship | Windows 8 RTM.

Скачать через торрент [VIDEO] Как украсть небоскреб Tower Heist бесплатно русская версия torrent активатор

Статистика раздачи
Размер:  850 MB   |    Зарегистрирован:  6 лет 3 месяца   |    .torrent скачан:  53 раза   |   
Раздают:  1  
   
загрузка...
 
Автор Сообщение

Galfimbul

avatar Galfimbul


Как украсть небоскреб / Tower Heist«Вся власть народу. И деньги тоже.»
Год выпуска: 2011
[b]Продолжительность:
01:44:33
Производство: США
Жанр: комедия, криминал
Перевод: Профессиональный (дублированный)[/b]
Субтитры: нет
Дата мировой премьеры: 24 октября 2011
Режиссер: Бретт Рэтнер / Brett Ratner
Актеры: Бен Стиллер, Эдди Мёрфи, Кейси Аффлек, Алан Алда, Мэттью Бродерик, Теа Леони, Майкл Пенья, Стефен Хендерсон, Джадд Хёрш
Описание фильма:
Джошу Ковачу не повезло — его поимел злобный финансист, живущий в роскошных апартаментах на верхнем этаже небоскреба. Чтобы вернуть деньги, Джош с друзьями решается на грандиозную кражу со взломом.

Но одним им это не под силу, и они обращаются к матерому преступнику. Дело за малым — шесть новоявленных друзей Джоушена должны пробраться в пентхаус и отыскать 20 миллионов долларов.
Рейтинг:

Качество: BDRip | [b]Формат: MP4 | Видео кодек: XviD | Аудио кодек: AAC
Видео: 640x264 (AR 2.40:1), 1007 Kbps, 23.976 fps | Аудио: 128 Kbps, 48.0 KHz, 2ch, Stereo[/b]
General
Complete name : K:\Torrents\Мои раздачи\[VIDEO4PDA] Tower Heist\Tower Heist.mp4
Format : MPEG-4
Format profile : Base Media / Version 2
Codec ID : mp42
File size : 850 MiB
Duration : 1h 44mn
Overall bit rate mode : Variable
Overall bit rate : 1 137 Kbps
Encoded date : UTC 2012-03-05 06:13:46
Tagged date : UTC 2012-03-05 06:13:46

Video
ID : 201
Format : MPEG-4 Visual
Format profile : Advanced [email protected]
Format settings, BVOP : No
Format settings, QPel : No
Format settings, GMC : No warppoints
Format settings, Matrix : Default (H.263)
Codec ID : 20
Duration : 1h 44mn
Bit rate mode : Variable
Bit rate : 1 007 Kbps
Maximum bit rate : 7 024 Kbps
Width : 640 pixels
Height : 264 pixels
Display aspect ratio : 2.40:1
Frame rate mode : Constant
Frame rate : 23.976 fps
Color space : YUV
Chroma subsampling : 4:2:0
Bit depth : 8 bits
Scan type : Progressive
Compression mode : Lossy
Bits/(Pixel*Frame) : 0.248
Stream size : 753 MiB (89%)
Writing library : XviD 61
Encoded date : UTC 2012-03-05 06:13:46
Tagged date : UTC 2012-03-05 06:14:46

Audio
ID : 101
Format : AAC
Format/Info : Advanced Audio Codec
Format profile : LC
Codec ID : 40
Duration : 1h 44mn
Bit rate mode : Variable
Bit rate : 128 Kbps
Maximum bit rate : 145 Kbps
Channel(s) : 2 channels
Channel positions : Front: L R
Sampling rate : 48.0 KHz
Compression mode : Lossy
Stream size : 95.6 MiB (11%)
Encoded date : UTC 2012-03-05 06:14:42
Tagged date : UTC 2012-03-05 06:14:46
Релиз подготовлен:



Трекер:  [ 07-Май-2012 15:30 ]

  

Скачать .torrent

Размер .torrent файла 17 KB


Размер: 850 MB
Хэш (hash) релиза: c20cd436f372a8958244d5f1d006d3666623c850

Еще никто не оставлял запись к записи скачать торрент [VIDEO] Как украсть небоскреб Tower Heist . Будь первым!

!Обратная связь