[BlackedRaw.com] 2018-06-26 Riley Reid - Girlfriend Gangbang At The After Party [2018 г., Blowjob, All sex, Anal sex, DP, Interracial (IR) (BDWC)] [2000х3000, 97 фото] | Seventy-Seven (2017) | Besuch aus Liliput

Скачать через торрент [SERIAL] Алькатрас Alcatraz бесплатно русская версия torrent активатор

Статистика раздачи
Размер:  1.7 GB   |    Зарегистрирован:  6 лет 2 месяца   |    .torrent скачан:  48 раз   |   
Раздают:  1  
   
загрузка...
 
Автор Сообщение

Galfimbul

avatar Galfimbul


Алькатрас / Alcatraz <br><br> <div align="right"><var class="postImg postImgAligned img-right" title="http://i30.fastpic.ru/big/2012/0119/50/98b33ddfe66cd958fd4953851861a250.jpg">
</var><hr>Год выпуска: 2012
Страна: США
Жанр: боевик, триллер, детектив
Продолжительность: 45 мин.
Перевод: Профессиональный (многоголосый, закадровый) LostFilm
Озвучка: Студия "Кравец".
Русские субтитры: нет
Режиссер: Брэд Андерсон, Джек Бендер, Дэнни Кэннон
В ролях: Джонатан Койн, Сэмюэл Патрик Чу, Хорхе Гарсиа, Сара Джонс, Джеффри Пирс, Дэвид Хофлин, Joe Egender, Джинэнн Гуссен, Сэм Нил, Джеймс Бэмфорд <hr>Описание: История доктора Диего Сото, лучшего в мире знатока самой знаменитой американской тюрьмы «Алькатрас», расположенной на острове у берегов Сан-Франциско. Сото предстоит разгадать тайну, связанную с загадочным исчезновением заключенных и охранников «Алькатраса» много лет назад и неожиданным их появлением в уже недействующей тюрьме (она была закрыта в 1963 году) в наши дни. <hr>Формат : MPEG-4
Идентификатор кодека : 3gp4
Продолжительность : 45 м.
Битрейт : 300-350 Кбит/сек
Ширина : 320 пикселей
Высота : 176 пикселей
Соотношение сторон : 16:9 <br><br> Аудио : Advanced Audio Codec
Битрейт : 64 Кбит/сек <hr>
1-2 Пилот. Эрнест Кобб
<a href="http://fastpic.ru/view/32/2012/0213/bb3549cec0f665a95398a36bbe37b545.png.html" class="postLink"><var class="postImg" title="http://i32.fastpic.ru/thumb/2012/0213/45/bb3549cec0f665a95398a36bbe37b545.jpeg">
</var></a> <a href="http://fastpic.ru/view/32/2012/0213/3be39d2da13c6a01f646ba0787367c47.png.html" class="postLink"><var class="postImg" title="http://i32.fastpic.ru/thumb/2012/0213/47/3be39d2da13c6a01f646ba0787367c47.jpeg">
</var></a> <a href="http://fastpic.ru/view/32/2012/0213/766a25090614237aad3ad9f4c0338d25.png.html" class="postLink"><var class="postImg" title="http://i32.fastpic.ru/thumb/2012/0213/25/766a25090614237aad3ad9f4c0338d25.jpeg">
</var></a> <a href="http://fastpic.ru/view/32/2012/0213/42bce91672bd4c5607a8bb0e18ebd57b.png.html" class="postLink"><var class="postImg" title="http://i32.fastpic.ru/thumb/2012/0213/7b/42bce91672bd4c5607a8bb0e18ebd57b.jpeg">
</var></a> <a href="http://fastpic.ru/view/32/2012/0213/9962f9a997ed8834a0c50e52206c9f03.png.html" class="postLink"><var class="postImg" title="http://i32.fastpic.ru/thumb/2012/0213/03/9962f9a997ed8834a0c50e52206c9f03.jpeg">
</var></a> <a href="http://fastpic.ru/view/32/2012/0213/5b41d47f1326cb5413e9d1b743de6671.png.html" class="postLink"><var class="postImg" title="http://i32.fastpic.ru/thumb/2012/0213/71/5b41d47f1326cb5413e9d1b743de6671.jpeg">
</var></a> <a href="http://fastpic.ru/view/32/2012/0213/d8ad31d6e6e289c4f5e62c243fd5b756.png.html" class="postLink"><var class="postImg" title="http://i32.fastpic.ru/thumb/2012/0213/56/d8ad31d6e6e289c4f5e62c243fd5b756.jpeg">
</var></a> <a href="http://fastpic.ru/view/32/2012/0213/25cd91527dca700dcda237ec1f7417a8.png.html" class="postLink"><var class="postImg" title="http://i32.fastpic.ru/thumb/2012/0213/a8/25cd91527dca700dcda237ec1f7417a8.jpeg">
</var></a> <a href="http://fastpic.ru/view/32/2012/0213/c30c9ceea47482bf77689f7e6295c7bb.png.html" class="postLink"><var class="postImg" title="http://i32.fastpic.ru/thumb/2012/0213/bb/c30c9ceea47482bf77689f7e6295c7bb.jpeg">
</var></a> <a href="http://fastpic.ru/view/32/2012/0213/66076b3b03f326608e62941ac555ebc0.png.html" class="postLink"><var class="postImg" title="http://i32.fastpic.ru/thumb/2012/0213/c0/66076b3b03f326608e62941ac555ebc0.jpeg">
</var></a>
Полное имя : Alcatraz.s01e01e02.rus.LostFilm.TV.3gp
Формат : MPEG-4
Профиль формата : 3GPP Media Release 4
Идентификатор кодека : 3gp4
Размер файла : 231 Мбайт
Продолжительность : 1 ч. 28 м.
Режим общего битрейта : Переменный
Общий поток : 365 Кбит/сек
Дата кодирования : UTC 2012-02-12 23:50:10
Дата пометки : UTC 2012-02-12 23:50:10 <br><br> Видео
Идентификатор : 1
Формат : MPEG-4 Visual
Профиль формата : [email protected]
Параметр BVOP формата : Нет
Параметр QPel формата : Нет
Параметр GMC формата : Без точки перехода
Параметр матрицы формата : Default (H.263)
Идентификатор кодека : 20
Продолжительность : 1 ч. 28 м.
Битрейт : 298 Кбит/сек
Ширина : 320 пикселей
Высота : 176 пикселей
Соотношение сторон : 16:9
Режим частоты кадров : Постоянный
Частота кадров : 15,000 кадров/сек
Цветовое пространство : YUV
Субдискретизация насыщенности : 4:2:0
Битовая глубина : 8 бит
Тип развёртки : Прогрессивная
Метод сжатия : С потерями
Бит/(Пиксели*Кадры) : 0.352
Размер потока : 188 Мбайт (81%)
Библиотека кодирования : XviD 63
Дата кодирования : UTC 2012-02-12 23:50:10
Дата пометки : UTC 2012-02-12 23:50:10 <br><br> Аудио
Идентификатор : 2
Формат : AAC
Формат/Информация : Advanced Audio Codec
Профиль формата : LC
Идентификатор кодека : 40
Продолжительность : 1 ч. 28 м.
Вид битрейта : Переменный
Битрейт : 64,0 Кбит/сек
Каналы : 2 канала
Расположение каналов : Front: L R
Частота : 44,1 КГц
Метод сжатия : С потерями
Размер потока : 40,4 Мбайт (18%)
Дата кодирования : UTC 2012-02-12 23:50:10
Дата пометки : UTC 2012-02-12 23:50:10
<hr>3 Кит Нельсон
<a href="http://fastpic.ru/view/30/2012/0213/12318d70ca3f8253b41e275399fc3e0f.png.html" class="postLink"><var class="postImg" title="http://i30.fastpic.ru/thumb/2012/0213/0f/12318d70ca3f8253b41e275399fc3e0f.jpeg">
</var></a> <a href="http://fastpic.ru/view/30/2012/0213/89627e30dd391432d30bb19f0ba6e7ef.png.html" class="postLink"><var class="postImg" title="http://i30.fastpic.ru/thumb/2012/0213/ef/89627e30dd391432d30bb19f0ba6e7ef.jpeg">
</var></a> <a href="http://fastpic.ru/view/30/2012/0213/49d920ba274d34c23c1a457ee9bacb13.png.html" class="postLink"><var class="postImg" title="http://i30.fastpic.ru/thumb/2012/0213/13/49d920ba274d34c23c1a457ee9bacb13.jpeg">
</var></a> <a href="http://fastpic.ru/view/30/2012/0213/57741367e859a04896762d31a0299207.png.html" class="postLink"><var class="postImg" title="http://i30.fastpic.ru/thumb/2012/0213/07/57741367e859a04896762d31a0299207.jpeg">
</var></a> <a href="http://fastpic.ru/view/30/2012/0213/f4e33c1bc1c2e79c7f36e96ebf001f58.png.html" class="postLink"><var class="postImg" title="http://i30.fastpic.ru/thumb/2012/0213/58/f4e33c1bc1c2e79c7f36e96ebf001f58.jpeg">
</var></a> <a href="http://fastpic.ru/view/30/2012/0213/5aa26991fd1b20ab2a5db65ed576f0f5.png.html" class="postLink"><var class="postImg" title="http://i30.fastpic.ru/thumb/2012/0213/f5/5aa26991fd1b20ab2a5db65ed576f0f5.jpeg">
</var></a> <a href="http://fastpic.ru/view/30/2012/0213/683f77d64aa7707432788e0859b443fe.png.html" class="postLink"><var class="postImg" title="http://i30.fastpic.ru/thumb/2012/0213/fe/683f77d64aa7707432788e0859b443fe.jpeg">
</var></a> <a href="http://fastpic.ru/view/30/2012/0213/6b69fd36526976abc484aca9c46d2e38.png.html" class="postLink"><var class="postImg" title="http://i30.fastpic.ru/thumb/2012/0213/38/6b69fd36526976abc484aca9c46d2e38.jpeg">
</var></a> <a href="http://fastpic.ru/view/30/2012/0213/f3862d88e2131a5bdde7286168347d4d.png.html" class="postLink"><var class="postImg" title="http://i30.fastpic.ru/thumb/2012/0213/4d/f3862d88e2131a5bdde7286168347d4d.jpeg">
</var></a> <a href="http://fastpic.ru/view/30/2012/0213/6a868691455129ee34c159963f2788b2.png.html" class="postLink"><var class="postImg" title="http://i30.fastpic.ru/thumb/2012/0213/b2/6a868691455129ee34c159963f2788b2.jpeg">
</var></a>
Полное имя : Alcatraz.s01e03.rus.LostFilm.TV.3gp
Формат : MPEG-4
Профиль формата : 3GPP Media Release 4
Идентификатор кодека : 3gp4
Размер файла : 111 Мбайт
Продолжительность : 43 м.
Режим общего битрейта : Переменный
Общий поток : 356 Кбит/сек
Дата кодирования : UTC 2012-02-12 23:30:52
Дата пометки : UTC 2012-02-12 23:30:52 <br><br> Видео
Идентификатор : 1
Формат : MPEG-4 Visual
Профиль формата : [email protected]
Параметр BVOP формата : Нет
Параметр QPel формата : Нет
Параметр GMC формата : Без точки перехода
Параметр матрицы формата : Default (H.263)
Идентификатор кодека : 20
Продолжительность : 43 м.
Битрейт : 289 Кбит/сек
Ширина : 320 пикселей
Высота : 176 пикселей
Соотношение сторон : 16:9
Режим частоты кадров : Постоянный
Частота кадров : 15,000 кадров/сек
Цветовое пространство : YUV
Субдискретизация насыщенности : 4:2:0
Битовая глубина : 8 бит
Тип развёртки : Прогрессивная
Метод сжатия : С потерями
Бит/(Пиксели*Кадры) : 0.342
Размер потока : 89,8 Мбайт (81%)
Библиотека кодирования : XviD 63
Дата кодирования : UTC 2012-02-12 23:30:52
Дата пометки : UTC 2012-02-12 23:30:52 <br><br> Аудио
Идентификатор : 2
Формат : AAC
Формат/Информация : Advanced Audio Codec
Профиль формата : LC
Идентификатор кодека : 40
Продолжительность : 43 м.
Вид битрейта : Переменный
Битрейт : 63,9 Кбит/сек
Каналы : 2 канала
Расположение каналов : Front: L R
Частота : 44,1 КГц
Метод сжатия : С потерями
Размер потока : 19,9 Мбайт (18%)
Дата кодирования : UTC 2012-02-12 23:30:52
Дата пометки : UTC 2012-02-12 23:30:52
<hr>4 Кэл Суини
<a href="http://fastpic.ru/view/28/2012/0213/3403ac7ad6dea9a888c74364531718e7.png.html" class="postLink"><var class="postImg" title="http://i28.fastpic.ru/thumb/2012/0213/e7/3403ac7ad6dea9a888c74364531718e7.jpeg">
</var></a> <a href="http://fastpic.ru/view/28/2012/0213/0c36d482f936b1861dc2871a5a1feb3f.png.html" class="postLink"><var class="postImg" title="http://i28.fastpic.ru/thumb/2012/0213/3f/0c36d482f936b1861dc2871a5a1feb3f.jpeg">
</var></a> <a href="http://fastpic.ru/view/28/2012/0213/3338bd1952732f53bf11182595baca47.png.html" class="postLink"><var class="postImg" title="http://i28.fastpic.ru/thumb/2012/0213/47/3338bd1952732f53bf11182595baca47.jpeg">
</var></a> <a href="http://fastpic.ru/view/28/2012/0213/56f76c6b5252dab7486786292493a46e.png.html" class="postLink"><var class="postImg" title="http://i28.fastpic.ru/thumb/2012/0213/6e/56f76c6b5252dab7486786292493a46e.jpeg">
</var></a> <a href="http://fastpic.ru/view/28/2012/0213/c6d9d9bb2c7aab735617f941903488bc.png.html" class="postLink"><var class="postImg" title="http://i28.fastpic.ru/thumb/2012/0213/bc/c6d9d9bb2c7aab735617f941903488bc.jpeg">
</var></a> <a href="http://fastpic.ru/view/28/2012/0213/23fb20b87cefb2d838e35fa233f8539b.png.html" class="postLink"><var class="postImg" title="http://i28.fastpic.ru/thumb/2012/0213/9b/23fb20b87cefb2d838e35fa233f8539b.jpeg">
</var></a> <a href="http://fastpic.ru/view/28/2012/0213/8bf19c941cc6d6936c2ab99187ad8ccd.png.html" class="postLink"><var class="postImg" title="http://i28.fastpic.ru/thumb/2012/0213/cd/8bf19c941cc6d6936c2ab99187ad8ccd.jpeg">
</var></a> <a href="http://fastpic.ru/view/28/2012/0213/7a138088d17f1601cbc923769c762353.png.html" class="postLink"><var class="postImg" title="http://i28.fastpic.ru/thumb/2012/0213/53/7a138088d17f1601cbc923769c762353.jpeg">
</var></a> <a href="http://fastpic.ru/view/28/2012/0213/c1d544bd516e1a771fe1f79e83c076ea.png.html" class="postLink"><var class="postImg" title="http://i28.fastpic.ru/thumb/2012/0213/ea/c1d544bd516e1a771fe1f79e83c076ea.jpeg">
</var></a> <a href="http://fastpic.ru/view/28/2012/0213/07a0851e28a54692cf6119c3848cc4af.png.html" class="postLink"><var class="postImg" title="http://i28.fastpic.ru/thumb/2012/0213/af/07a0851e28a54692cf6119c3848cc4af.jpeg">
</var></a>
Полное имя : Alcatraz.s01e04.rus.LostFilm.TV.3gp
Формат : MPEG-4
Профиль формата : 3GPP Media Release 4
Идентификатор кодека : 3gp4
Размер файла : 113 Мбайт
Продолжительность : 44 м.
Режим общего битрейта : Переменный
Общий поток : 358 Кбит/сек
Дата кодирования : UTC 2012-02-12 23:50:10
Дата пометки : UTC 2012-02-12 23:50:10 <br><br> Видео
Идентификатор : 1
Формат : MPEG-4 Visual
Профиль формата : [email protected]
Параметр BVOP формата : Нет
Параметр QPel формата : Нет
Параметр GMC формата : Без точки перехода
Параметр матрицы формата : Default (H.263)
Идентификатор кодека : 20
Продолжительность : 44 м.
Битрейт : 291 Кбит/сек
Ширина : 320 пикселей
Высота : 176 пикселей
Соотношение сторон : 16:9
Режим частоты кадров : Постоянный
Частота кадров : 15,000 кадров/сек
Цветовое пространство : YUV
Субдискретизация насыщенности : 4:2:0
Битовая глубина : 8 бит
Тип развёртки : Прогрессивная
Метод сжатия : С потерями
Бит/(Пиксели*Кадры) : 0.344
Размер потока : 91,7 Мбайт (81%)
Библиотека кодирования : XviD 63
Дата кодирования : UTC 2012-02-12 23:50:10
Дата пометки : UTC 2012-02-12 23:50:10 <br><br> Аудио
Идентификатор : 2
Формат : AAC
Формат/Информация : Advanced Audio Codec
Профиль формата : LC
Идентификатор кодека : 40
Продолжительность : 44 м.
Вид битрейта : Переменный
Битрейт : 64,0 Кбит/сек
Каналы : 2 канала
Расположение каналов : Front: L R
Частота : 44,1 КГц
Метод сжатия : С потерями
Размер потока : 20,2 Мбайт (18%)
Дата кодирования : UTC 2012-02-12 23:50:10
Дата пометки : UTC 2012-02-12 23:50:10
<hr>5 Гай Гастингс
<a href="http://fastpic.ru/view/29/2012/0213/5db4f1330f930c72a35e297627070302.png.html" class="postLink"><var class="postImg" title="http://i29.fastpic.ru/thumb/2012/0213/02/5db4f1330f930c72a35e297627070302.jpeg">
</var></a> <a href="http://fastpic.ru/view/29/2012/0213/556ce723213351fd08fa7251daa14d91.png.html" class="postLink"><var class="postImg" title="http://i29.fastpic.ru/thumb/2012/0213/91/556ce723213351fd08fa7251daa14d91.jpeg">
</var></a> <a href="http://fastpic.ru/view/29/2012/0213/da22bceecfe86149ec4535bd61cddfa5.png.html" class="postLink"><var class="postImg" title="http://i29.fastpic.ru/thumb/2012/0213/a5/da22bceecfe86149ec4535bd61cddfa5.jpeg">
</var></a> <a href="http://fastpic.ru/view/29/2012/0213/0193adae1ee0a838e8e8b1c3314b7256.png.html" class="postLink"><var class="postImg" title="http://i29.fastpic.ru/thumb/2012/0213/56/0193adae1ee0a838e8e8b1c3314b7256.jpeg">
</var></a> <a href="http://fastpic.ru/view/29/2012/0213/d148ffb329f27bfd0b651f13f8d17560.png.html" class="postLink"><var class="postImg" title="http://i29.fastpic.ru/thumb/2012/0213/60/d148ffb329f27bfd0b651f13f8d17560.jpeg">
</var></a> <a href="http://fastpic.ru/view/29/2012/0213/0bd997dec02e60cfcadb01b347fdeeb5.png.html" class="postLink"><var class="postImg" title="http://i29.fastpic.ru/thumb/2012/0213/b5/0bd997dec02e60cfcadb01b347fdeeb5.jpeg">
</var></a> <a href="http://fastpic.ru/view/29/2012/0213/beaf2c1db3e740663beddf3ffa33e0a8.png.html" class="postLink"><var class="postImg" title="http://i29.fastpic.ru/thumb/2012/0213/a8/beaf2c1db3e740663beddf3ffa33e0a8.jpeg">
</var></a> <a href="http://fastpic.ru/view/29/2012/0213/0ed833af9b1986f221e5a7c0ca46e554.png.html" class="postLink"><var class="postImg" title="http://i29.fastpic.ru/thumb/2012/0213/54/0ed833af9b1986f221e5a7c0ca46e554.jpeg">
</var></a> <a href="http://fastpic.ru/view/29/2012/0213/7a05947215a748f968558d7c80f3d9eb.png.html" class="postLink"><var class="postImg" title="http://i29.fastpic.ru/thumb/2012/0213/eb/7a05947215a748f968558d7c80f3d9eb.jpeg">
</var></a> <a href="http://fastpic.ru/view/29/2012/0213/6de8e0dfeb386abd6a1124964f125084.png.html" class="postLink"><var class="postImg" title="http://i29.fastpic.ru/thumb/2012/0213/84/6de8e0dfeb386abd6a1124964f125084.jpeg">
</var></a>
Полное имя : Alcatraz.s01e05.rus.LostFilm.TV.3gp
Формат : MPEG-4
Профиль формата : 3GPP Media Release 4
Идентификатор кодека : 3gp4
Размер файла : 110 Мбайт
Продолжительность : 43 м.
Режим общего битрейта : Переменный
Общий поток : 357 Кбит/сек
Дата кодирования : UTC 2012-02-13 00:09:12
Дата пометки : UTC 2012-02-13 00:09:12 <br><br> Видео
Идентификатор : 1
Формат : MPEG-4 Visual
Профиль формата : [email protected]
Параметр BVOP формата : Нет
Параметр QPel формата : Нет
Параметр GMC формата : Без точки перехода
Параметр матрицы формата : Default (H.263)
Идентификатор кодека : 20
Продолжительность : 43 м.
Битрейт : 290 Кбит/сек
Ширина : 320 пикселей
Высота : 176 пикселей
Соотношение сторон : 16:9
Режим частоты кадров : Постоянный
Частота кадров : 15,000 кадров/сек
Цветовое пространство : YUV
Субдискретизация насыщенности : 4:2:0
Битовая глубина : 8 бит
Тип развёртки : Прогрессивная
Метод сжатия : С потерями
Бит/(Пиксели*Кадры) : 0.343
Размер потока : 89,3 Мбайт (81%)
Библиотека кодирования : XviD 63
Дата кодирования : UTC 2012-02-13 00:09:12
Дата пометки : UTC 2012-02-13 00:09:12 <br><br> Аудио
Идентификатор : 2
Формат : AAC
Формат/Информация : Advanced Audio Codec
Профиль формата : LC
Идентификатор кодека : 40
Продолжительность : 43 м.
Вид битрейта : Переменный
Битрейт : 63,9 Кбит/сек
Каналы : 2 канала
Расположение каналов : Front: L R
Частота : 44,1 КГц
Метод сжатия : С потерями
Размер потока : 19,7 Мбайт (18%)
Дата кодирования : UTC 2012-02-13 00:09:12
Дата пометки : UTC 2012-02-13 00:09:12
<hr>6 Пакстон Петти
<a href="http://fastpic.ru/view/30/2012/0215/d7f46eb995c45185b814a187135cb494.png.html" class="postLink"><var class="postImg" title="http://i30.fastpic.ru/thumb/2012/0215/94/d7f46eb995c45185b814a187135cb494.jpeg">
</var></a> <a href="http://fastpic.ru/view/30/2012/0215/d1d958c3d000e0c3d256ae738b009d2b.png.html" class="postLink"><var class="postImg" title="http://i30.fastpic.ru/thumb/2012/0215/2b/d1d958c3d000e0c3d256ae738b009d2b.jpeg">
</var></a> <a href="http://fastpic.ru/view/30/2012/0215/c97b7b95e51a5c1c52a0f10aae362692.png.html" class="postLink"><var class="postImg" title="http://i30.fastpic.ru/thumb/2012/0215/92/c97b7b95e51a5c1c52a0f10aae362692.jpeg">
</var></a> <a href="http://fastpic.ru/view/30/2012/0215/544fae1d5334671bebb5cbb7a6e7061b.png.html" class="postLink"><var class="postImg" title="http://i30.fastpic.ru/thumb/2012/0215/1b/544fae1d5334671bebb5cbb7a6e7061b.jpeg">
</var></a> <a href="http://fastpic.ru/view/30/2012/0215/89e3e190beb2d8081c8ae411f7ab24f5.png.html" class="postLink"><var class="postImg" title="http://i30.fastpic.ru/thumb/2012/0215/f5/89e3e190beb2d8081c8ae411f7ab24f5.jpeg">
</var></a> <a href="http://fastpic.ru/view/30/2012/0215/b6ef867f14c1897d8471cf3e9f9b5be5.png.html" class="postLink"><var class="postImg" title="http://i30.fastpic.ru/thumb/2012/0215/e5/b6ef867f14c1897d8471cf3e9f9b5be5.jpeg">
</var></a> <a href="http://fastpic.ru/view/30/2012/0215/67b76eada9f27f35d466b998435629d3.png.html" class="postLink"><var class="postImg" title="http://i30.fastpic.ru/thumb/2012/0215/d3/67b76eada9f27f35d466b998435629d3.jpeg">
</var></a> <a href="http://fastpic.ru/view/30/2012/0215/dbe084d0bb59a5085eadd875a9fd0844.png.html" class="postLink"><var class="postImg" title="http://i30.fastpic.ru/thumb/2012/0215/44/dbe084d0bb59a5085eadd875a9fd0844.jpeg">
</var></a> <a href="http://fastpic.ru/view/30/2012/0215/7a3b1b415828f3fc74023fae5ddfc175.png.html" class="postLink"><var class="postImg" title="http://i30.fastpic.ru/thumb/2012/0215/75/7a3b1b415828f3fc74023fae5ddfc175.jpeg">
</var></a> <a href="http://fastpic.ru/view/30/2012/0215/f6e39014bd7e935a6d686e8476da8b83.png.html" class="postLink"><var class="postImg" title="http://i30.fastpic.ru/thumb/2012/0215/83/f6e39014bd7e935a6d686e8476da8b83.jpeg">
</var></a>
Общее
Полное имя : Alcatraz.s01e06.rus.LostFilm.TV.3gp
Формат : MPEG-4
Профиль формата : 3GPP Media Release 4
Идентификатор кодека : 3gp4
Размер файла : 117 Мбайт
Продолжительность : 43 м.
Режим общего битрейта : Переменный
Общий поток : 374 Кбит/сек
Дата кодирования : UTC 2012-02-15 19:34:27
Дата пометки : UTC 2012-02-15 19:34:27 <br><br> Видео
Идентификатор : 1
Формат : MPEG-4 Visual
Профиль формата : [email protected]
Параметр BVOP формата : Нет
Параметр QPel формата : Нет
Параметр GMC формата : Без точки перехода
Параметр матрицы формата : Default (H.263)
Идентификатор кодека : 20
Продолжительность : 43 м.
Битрейт : 307 Кбит/сек
Ширина : 320 пикселей
Высота : 176 пикселей
Соотношение сторон : 16:9
Режим частоты кадров : Постоянный
Частота кадров : 15,000 кадров/сек
Цветовое пространство : YUV
Субдискретизация насыщенности : 4:2:0
Битовая глубина : 8 бит
Тип развёртки : Прогрессивная
Метод сжатия : С потерями
Бит/(Пиксели*Кадры) : 0.363
Размер потока : 95,8 Мбайт (82%)
Библиотека кодирования : XviD 63
Дата кодирования : UTC 2012-02-15 19:34:27
Дата пометки : UTC 2012-02-15 19:34:27 <br><br> Аудио
Идентификатор : 2
Формат : AAC
Формат/Информация : Advanced Audio Codec
Профиль формата : LC
Идентификатор кодека : 40
Продолжительность : 43 м.
Вид битрейта : Переменный
Битрейт : 64,0 Кбит/сек
Каналы : 2 канала
Расположение каналов : Front: L R
Частота : 44,1 КГц
Метод сжатия : С потерями
Размер потока : 20,0 Мбайт (17%)
Дата кодирования : UTC 2012-02-15 19:34:27
Дата пометки : UTC 2012-02-15 19:34:27
<hr>7 Джонни МакКи
<a href="http://fastpic.ru/view/30/2012/0303/c44e2f2a286275746cb817fe450c0ecf.png.html" class="postLink"><var class="postImg" title="http://i30.fastpic.ru/thumb/2012/0303/cf/c44e2f2a286275746cb817fe450c0ecf.jpeg">
</var></a> <a href="http://fastpic.ru/view/30/2012/0303/7c3f8ccbd24e52e57a128d348d7068dc.png.html" class="postLink"><var class="postImg" title="http://i30.fastpic.ru/thumb/2012/0303/dc/7c3f8ccbd24e52e57a128d348d7068dc.jpeg">
</var></a> <a href="http://fastpic.ru/view/30/2012/0303/2ecdb6d6b0b0784fa9b4ae33c0c191b3.png.html" class="postLink"><var class="postImg" title="http://i30.fastpic.ru/thumb/2012/0303/b3/2ecdb6d6b0b0784fa9b4ae33c0c191b3.jpeg">
</var></a> <a href="http://fastpic.ru/view/30/2012/0303/29f92cf615f20e6550367fb75db2640e.png.html" class="postLink"><var class="postImg" title="http://i30.fastpic.ru/thumb/2012/0303/0e/29f92cf615f20e6550367fb75db2640e.jpeg">
</var></a> <a href="http://fastpic.ru/view/30/2012/0303/2a3bc35a179b97c29708e6a34273eb76.png.html" class="postLink"><var class="postImg" title="http://i30.fastpic.ru/thumb/2012/0303/76/2a3bc35a179b97c29708e6a34273eb76.jpeg">
</var></a> <a href="http://fastpic.ru/view/30/2012/0303/d1c759bb00de5406ff2f4b12c3235367.png.html" class="postLink"><var class="postImg" title="http://i30.fastpic.ru/thumb/2012/0303/67/d1c759bb00de5406ff2f4b12c3235367.jpeg">
</var></a> <a href="http://fastpic.ru/view/30/2012/0303/20195a375e9be26a5408c3d772bf76d6.png.html" class="postLink"><var class="postImg" title="http://i30.fastpic.ru/thumb/2012/0303/d6/20195a375e9be26a5408c3d772bf76d6.jpeg">
</var></a> <a href="http://fastpic.ru/view/30/2012/0303/4901c0fdd1788df6025ed5b0a04d4304.png.html" class="postLink"><var class="postImg" title="http://i30.fastpic.ru/thumb/2012/0303/04/4901c0fdd1788df6025ed5b0a04d4304.jpeg">
</var></a> <a href="http://fastpic.ru/view/30/2012/0303/84e3068d5ce660081fbabf34d4f7924c.png.html" class="postLink"><var class="postImg" title="http://i30.fastpic.ru/thumb/2012/0303/4c/84e3068d5ce660081fbabf34d4f7924c.jpeg">
</var></a> <a href="http://fastpic.ru/view/30/2012/0303/66df090a0fe1ba7a8e66e51adeb80bfe.png.html" class="postLink"><var class="postImg" title="http://i30.fastpic.ru/thumb/2012/0303/fe/66df090a0fe1ba7a8e66e51adeb80bfe.jpeg">
</var></a>
Общее
Полное имя : Alcatraz.s01e07.rus.LostFilm.TV.3gp
Формат : MPEG-4
Профиль формата : 3GPP Media Release 4
Идентификатор кодека : 3gp4
Размер файла : 151 Мбайт
Продолжительность : 44 м.
Режим общего битрейта : Переменный
Общий поток : 478 Кбит/сек
Дата кодирования : UTC 2012-03-03 16:17:05
Дата пометки : UTC 2012-03-03 16:17:05 <br><br> Видео
Идентификатор : 1
Формат : MPEG-4 Visual
Профиль формата : [email protected]
Параметр BVOP формата : Нет
Параметр QPel формата : Нет
Параметр GMC формата : Без точки перехода
Параметр матрицы формата : Default (H.263)
Идентификатор кодека : 20
Продолжительность : 44 м.
Битрейт : 346 Кбит/сек
Ширина : 320 пикселей
Высота : 176 пикселей
Соотношение сторон : 16:9
Режим частоты кадров : Постоянный
Частота кадров : 20,000 кадров/сек
Цветовое пространство : YUV
Субдискретизация насыщенности : 4:2:0
Битовая глубина : 8 бит
Тип развёртки : Прогрессивная
Метод сжатия : С потерями
Бит/(Пиксели*Кадры) : 0.307
Размер потока : 109 Мбайт (72%)
Библиотека кодирования : XviD 63
Дата кодирования : UTC 2012-03-03 16:17:05
Дата пометки : UTC 2012-03-03 16:17:05 <br><br> Аудио
Идентификатор : 2
Формат : AAC
Формат/Информация : Advanced Audio Codec
Профиль формата : LC
Идентификатор кодека : 40
Продолжительность : 44 м.
Вид битрейта : Переменный
Битрейт : 128 Кбит/сек
Каналы : 2 канала
Расположение каналов : Front: L R
Частота : 44,1 КГц
Метод сжатия : С потерями
Размер потока : 40,4 Мбайт (27%)
Дата кодирования : UTC 2012-03-03 16:17:05
Дата пометки : UTC 2012-03-03 16:17:05
<hr>8 Кларенс Монтгомери
<a href="http://fastpic.ru/view/31/2012/0304/daf0c8580a7a238db3058273a7b8311b.png.html" class="postLink"><var class="postImg" title="http://i31.fastpic.ru/thumb/2012/0304/1b/daf0c8580a7a238db3058273a7b8311b.jpeg">
</var></a> <a href="http://fastpic.ru/view/31/2012/0304/6429b8b15e83d2db5fa5f101fc739de6.png.html" class="postLink"><var class="postImg" title="http://i31.fastpic.ru/thumb/2012/0304/e6/6429b8b15e83d2db5fa5f101fc739de6.jpeg">
</var></a> <a href="http://fastpic.ru/view/31/2012/0304/5c43021d6aaccf4924138811fe100711.png.html" class="postLink"><var class="postImg" title="http://i31.fastpic.ru/thumb/2012/0304/11/5c43021d6aaccf4924138811fe100711.jpeg">
</var></a> <a href="http://fastpic.ru/view/31/2012/0304/64446c01ff70454cf3234b65b79870e3.png.html" class="postLink"><var class="postImg" title="http://i31.fastpic.ru/thumb/2012/0304/e3/64446c01ff70454cf3234b65b79870e3.jpeg">
</var></a> <a href="http://fastpic.ru/view/31/2012/0304/8e9770e289fda6289c208a1c882e591e.png.html" class="postLink"><var class="postImg" title="http://i31.fastpic.ru/thumb/2012/0304/1e/8e9770e289fda6289c208a1c882e591e.jpeg">
</var></a> <a href="http://fastpic.ru/view/31/2012/0304/92d3ad3fdea067b538b699967002dc7e.png.html" class="postLink"><var class="postImg" title="http://i31.fastpic.ru/thumb/2012/0304/7e/92d3ad3fdea067b538b699967002dc7e.jpeg">
</var></a> <a href="http://fastpic.ru/view/31/2012/0304/191332fb2e5b3d9af4322337bfb1f4b8.png.html" class="postLink"><var class="postImg" title="http://i31.fastpic.ru/thumb/2012/0304/b8/191332fb2e5b3d9af4322337bfb1f4b8.jpeg">
</var></a> <a href="http://fastpic.ru/view/31/2012/0304/ae42bd3375ae6f61c56224abb4ee3612.png.html" class="postLink"><var class="postImg" title="http://i31.fastpic.ru/thumb/2012/0304/12/ae42bd3375ae6f61c56224abb4ee3612.jpeg">
</var></a> <a href="http://fastpic.ru/view/31/2012/0304/949b10b54359b7ddd62c77a091b86102.png.html" class="postLink"><var class="postImg" title="http://i31.fastpic.ru/thumb/2012/0304/02/949b10b54359b7ddd62c77a091b86102.jpeg">
</var></a> <a href="http://fastpic.ru/view/31/2012/0304/f3fb31d102c7791c442c053628051913.png.html" class="postLink"><var class="postImg" title="http://i31.fastpic.ru/thumb/2012/0304/13/f3fb31d102c7791c442c053628051913.jpeg">
</var></a>
Общее
Полное имя : Alcatraz.s01e08.rus.LostFilm.TV.3gp
Формат : MPEG-4
Профиль формата : 3GPP Media Release 4
Идентификатор кодека : 3gp4
Размер файла : 149 Мбайт
Продолжительность : 43 м.
Режим общего битрейта : Переменный
Общий поток : 484 Кбит/сек
Дата кодирования : UTC 2012-03-03 18:06:37
Дата пометки : UTC 2012-03-03 18:06:37 <br><br> Видео
Идентификатор : 1
Формат : MPEG-4 Visual
Профиль формата : [email protected]
Параметр BVOP формата : Нет
Параметр QPel формата : Нет
Параметр GMC формата : Без точки перехода
Параметр матрицы формата : Default (H.263)
Идентификатор кодека : 20
Продолжительность : 43 м.
Битрейт : 352 Кбит/сек
Ширина : 320 пикселей
Высота : 180 пикселей
Соотношение сторон : 16:9
Режим частоты кадров : Постоянный
Частота кадров : 20,000 кадров/сек
Цветовое пространство : YUV
Субдискретизация насыщенности : 4:2:0
Битовая глубина : 8 бит
Тип развёртки : Прогрессивная
Метод сжатия : С потерями
Бит/(Пиксели*Кадры) : 0.306
Размер потока : 109 Мбайт (73%)
Библиотека кодирования : XviD 1.1.2 (UTC 2006-11-01)
Дата кодирования : UTC 2012-03-03 18:06:37
Дата пометки : UTC 2012-03-03 18:06:37 <br><br> Аудио
Идентификатор : 2
Формат : AAC
Формат/Информация : Advanced Audio Codec
Профиль формата : LC
Идентификатор кодека : 40
Продолжительность : 43 м.
Вид битрейта : Переменный
Битрейт : 128 Кбит/сек
Каналы : 2 канала
Расположение каналов : Front: L R
Частота : 44,1 КГц
Метод сжатия : С потерями
Размер потока : 39,5 Мбайт (26%)
Дата кодирования : UTC 2012-03-03 18:06:37
Дата пометки : UTC 2012-03-03 18:06:37


Трекер:  [ 08-Май-2012 10:02 ]

  

Скачать .torrent

Размер .torrent файла 18 KB


Размер: 1.7 GB
Хэш (hash) релиза: 34516eb9422243debcc8e23a9ac2a0bda40a7c7d

Еще никто не оставлял запись к записи скачать торрент [SERIAL] Алькатрас Alcatraz . Будь первым!

!Обратная связь