Motive S04E04 HDTV x264-BAJSKORV[ettv] | A Beginners Guide to Excel 2011 for Mac | Adventure Time S09E16 HDTV x264-W4F [eztv]

Скачать через торрент [SERIAL] Гримм Grimm бесплатно русская версия torrent активатор

Статистика раздачи
Размер:  2.08 GB   |    Зарегистрирован:  6 лет 2 месяца   |    .torrent скачан:  81 раз   |   
Раздают:  1  
   
загрузка...
 
Автор Сообщение

Galfimbul

avatar Galfimbul


Гримм / Grimm

Год выпуска: 2011

Страна: США
Жанр: Драма, Фэнтези, Ужасы
Статус: снимается
Сайт сериала: http://www.nbc.com/grimm/
Продолжительность: 42 мин.
Перевод: Профессиональный (многоголосый, закадровый) LostFilm
Русские субтитры: нет
Режиссер: Марк Баклэнд
В ролях: Дэйв Гвинтоли, Расселл Хорнсби, Битси Таллоч, Сайлас Уэйр Митчелл, Саша Ройз, Регги Ли, Клэр Коффи, Айанна Беркшир, Кейт Бёртон, Тим Бэгли и др.
Описание: Молодой детектив Ник Бёркхардт является наследником рода Гримм - охотников за нечистью, живущей в мире людей.
Все потомки Гриммов обладают ключевой способностью - они могут видеть истинную сущность злых тварей, под какой бы личиной они не скрывались.
Соратником Ника становится перевоспитавшийся "Потрошитель" - оборотень Эдди Монро, помогающий ему познавать таинства древней мифологии.
Качество: WEB-DLRip
Формат: MPEG4
Видео кодек: Xvid
Аудио кодек: AAC
Видео: MPEG-4, 320x, 16x9, 300-350Kbt/s, 15pts
Аудио: AAC 64Kbt/s 44Khz 2ch
01 Pilot
Общее
Полное имя : Grimm.S01E01.rus.LostFilm.TV.3gp
Формат : MPEG-4
Профиль формата : 3GPP Media Release 4
Идентификатор кодека : 3gp4
Размер файла : 103 Мбайт
Продолжительность : 43 м.
Режим общего битрейта : Переменный
Общий поток : 331 Кбит/сек
Дата кодирования : UTC 2012-02-18 16:30:54
Дата пометки : UTC 2012-02-18 16:30:54

Видео
Идентификатор : 1
Формат : MPEG-4 Visual
Профиль формата : [email protected]
Параметр BVOP формата : Нет
Параметр QPel формата : Нет
Параметр GMC формата : Без точки перехода
Параметр матрицы формата : Default (H.263)
Идентификатор кодека : 20
Продолжительность : 43 м.
Битрейт : 302 Кбит/сек
Ширина : 320 пикселей
Высота : 180 пикселей
Соотношение сторон : 16:9
Режим частоты кадров : Постоянный
Частота кадров : 15,000 кадров/сек
Цветовое пространство : YUV
Субдискретизация насыщенности : 4:2:0
Битовая глубина : 8 бит
Тип развёртки : Прогрессивная
Метод сжатия : С потерями
Бит/(Пиксели*Кадры) : 0.349
Размер потока : 93,6 Мбайт (91%)
Библиотека кодирования : XviD 63
Дата кодирования : UTC 2012-02-18 16:30:54
Дата пометки : UTC 2012-02-18 16:30:54

Аудио
Идентификатор : 2
Формат : AAC
Формат/Информация : Advanced Audio Codec
Профиль формата : LC
Идентификатор кодека : 40
Продолжительность : 42 м.
Вид битрейта : Переменный
Битрейт : 64,0 Кбит/сек
Каналы : 2 канала
Расположение каналов : Front: L R
Частота : 44,1 КГц
Метод сжатия : С потерями
Размер потока : 19,7 Мбайт (17%)
Дата кодирования : UTC 2012-02-18 16:30:54
Дата пометки : UTC 2012-02-18 16:30:54

02 Медвежья натура (Bears Will Be Bears)
Общее
Полное имя : Grimm.S01E02.rus.LostFilm.TV.3gp
Формат : MPEG-4
Профиль формата : 3GPP Media Release 4
Идентификатор кодека : 3gp4
Размер файла : 114 Мбайт
Продолжительность : 42 м.
Режим общего битрейта : Переменный
Общий поток : 369 Кбит/сек
Дата кодирования : UTC 2012-02-18 16:30:54
Дата пометки : UTC 2012-02-18 16:30:54

Видео
Идентификатор : 1
Формат : MPEG-4 Visual
Профиль формата : [email protected]
Параметр BVOP формата : Нет
Параметр QPel формата : Нет
Параметр GMC формата : Без точки перехода
Параметр матрицы формата : Default (H.263)
Идентификатор кодека : 20
Продолжительность : 42 м.
Битрейт : 302 Кбит/сек
Ширина : 320 пикселей
Высота : 180 пикселей
Соотношение сторон : 16:9
Режим частоты кадров : Постоянный
Частота кадров : 15,000 кадров/сек
Цветовое пространство : YUV
Субдискретизация насыщенности : 4:2:0
Битовая глубина : 8 бит
Тип развёртки : Прогрессивная
Метод сжатия : С потерями
Бит/(Пиксели*Кадры) : 0.349
Размер потока : 92,8 Мбайт (82%)
Библиотека кодирования : XviD 63
Дата кодирования : UTC 2012-02-18 16:30:54
Дата пометки : UTC 2012-02-18 16:30:54

Аудио
Идентификатор : 2
Формат : AAC
Формат/Информация : Advanced Audio Codec
Профиль формата : LC
Идентификатор кодека : 40
Продолжительность : 42 м.
Вид битрейта : Переменный
Битрейт : 64,0 Кбит/сек
Каналы : 2 канала
Расположение каналов : Front: L R
Частота : 44,1 КГц
Метод сжатия : С потерями
Размер потока : 19,7 Мбайт (17%)
Дата кодирования : UTC 2012-02-18 16:30:54
Дата пометки : UTC 2012-02-18 16:30:54

03 Осторожно, пчёлы! (Beeware)
Общее
Полное имя : Grimm.S01E03.rus.LostFilm.TV.3gp
Формат : MPEG-4
Профиль формата : 3GPP Media Release 4
Идентификатор кодека : 3gp4
Размер файла : 113 Мбайт
Продолжительность : 43 м.
Режим общего битрейта : Переменный
Общий поток : 365 Кбит/сек
Дата кодирования : UTC 2012-02-18 16:48:50
Дата пометки : UTC 2012-02-18 16:48:50

Видео
Идентификатор : 1
Формат : MPEG-4 Visual
Профиль формата : [email protected]
Параметр BVOP формата : Нет
Параметр QPel формата : Нет
Параметр GMC формата : Без точки перехода
Параметр матрицы формата : Default (H.263)
Идентификатор кодека : 20
Продолжительность : 43 м.
Битрейт : 297 Кбит/сек
Ширина : 320 пикселей
Высота : 180 пикселей
Соотношение сторон : 16:9
Режим частоты кадров : Постоянный
Частота кадров : 15,000 кадров/сек
Цветовое пространство : YUV
Субдискретизация насыщенности : 4:2:0
Битовая глубина : 8 бит
Тип развёртки : Прогрессивная
Метод сжатия : С потерями
Бит/(Пиксели*Кадры) : 0.344
Размер потока : 92,3 Мбайт (81%)
Библиотека кодирования : XviD 63
Дата кодирования : UTC 2012-02-18 16:48:50
Дата пометки : UTC 2012-02-18 16:48:50

Аудио
Идентификатор : 2
Формат : AAC
Формат/Информация : Advanced Audio Codec
Профиль формата : LC
Идентификатор кодека : 40
Продолжительность : 43 м.
Вид битрейта : Переменный
Битрейт : 63,9 Кбит/сек
Каналы : 2 канала
Расположение каналов : Front: L R
Частота : 44,1 КГц
Метод сжатия : С потерями
Размер потока : 19,8 Мбайт (18%)
Дата кодирования : UTC 2012-02-18 16:48:50
Дата пометки : UTC 2012-02-18 16:48:50

04 Одинокие сердца (Lonelyhearts)
Общее
Полное имя : Grimm.S01E04.rus.LostFilm.TV.3gp
Формат : MPEG-4
Профиль формата : 3GPP Media Release 4
Идентификатор кодека : 3gp4
Размер файла : 115 Мбайт
Продолжительность : 43 м.
Режим общего битрейта : Переменный
Общий поток : 369 Кбит/сек
Дата кодирования : UTC 2012-02-18 16:49:26
Дата пометки : UTC 2012-02-18 16:49:26

Видео
Идентификатор : 1
Формат : MPEG-4 Visual
Профиль формата : [email protected]
Параметр BVOP формата : Нет
Параметр QPel формата : Нет
Параметр GMC формата : Без точки перехода
Параметр матрицы формата : Default (H.263)
Идентификатор кодека : 20
Продолжительность : 43 м.
Битрейт : 302 Кбит/сек
Ширина : 320 пикселей
Высота : 180 пикселей
Соотношение сторон : 16:9
Режим частоты кадров : Постоянный
Частота кадров : 15,000 кадров/сек
Цветовое пространство : YUV
Субдискретизация насыщенности : 4:2:0
Битовая глубина : 8 бит
Тип развёртки : Прогрессивная
Метод сжатия : С потерями
Бит/(Пиксели*Кадры) : 0.349
Размер потока : 93,7 Мбайт (82%)
Библиотека кодирования : XviD 63
Дата кодирования : UTC 2012-02-18 16:49:26
Дата пометки : UTC 2012-02-18 16:49:26

Аудио
Идентификатор : 2
Формат : AAC
Формат/Информация : Advanced Audio Codec
Профиль формата : LC
Идентификатор кодека : 40
Продолжительность : 43 м.
Вид битрейта : Переменный
Битрейт : 63,9 Кбит/сек
Каналы : 2 канала
Расположение каналов : Front: L R
Частота : 44,1 КГц
Метод сжатия : С потерями
Размер потока : 19,8 Мбайт (17%)
Дата кодирования : UTC 2012-02-18 16:49:26
Дата пометки : UTC 2012-02-18 16:49:26

05 Пляска смерти (Danse Macabre)
Общее
Полное имя : Grimm.S01E05.rus.LostFilm.TV.3gp
Формат : MPEG-4
Профиль формата : 3GPP Media Release 4
Идентификатор кодека : 3gp4
Размер файла : 115 Мбайт
Продолжительность : 43 м.
Режим общего битрейта : Переменный
Общий поток : 370 Кбит/сек
Дата кодирования : UTC 2012-02-18 17:07:40
Дата пометки : UTC 2012-02-18 17:07:40

Видео
Идентификатор : 1
Формат : MPEG-4 Visual
Профиль формата : [email protected]
Параметр BVOP формата : Нет
Параметр QPel формата : Нет
Параметр GMC формата : Без точки перехода
Параметр матрицы формата : Default (H.263)
Идентификатор кодека : 20
Продолжительность : 43 м.
Битрейт : 302 Кбит/сек
Ширина : 320 пикселей
Высота : 180 пикселей
Соотношение сторон : 16:9
Режим частоты кадров : Постоянный
Частота кадров : 15,000 кадров/сек
Цветовое пространство : YUV
Субдискретизация насыщенности : 4:2:0
Битовая глубина : 8 бит
Тип развёртки : Прогрессивная
Метод сжатия : С потерями
Бит/(Пиксели*Кадры) : 0.349
Размер потока : 93,8 Мбайт (82%)
Библиотека кодирования : XviD 63
Дата кодирования : UTC 2012-02-18 17:07:40
Дата пометки : UTC 2012-02-18 17:07:40

Аудио
Идентификатор : 2
Формат : AAC
Формат/Информация : Advanced Audio Codec
Профиль формата : LC
Идентификатор кодека : 40
Продолжительность : 43 м.
Вид битрейта : Переменный
Битрейт : 64,0 Кбит/сек
Каналы : 2 канала
Расположение каналов : Front: L R
Частота : 44,1 КГц
Метод сжатия : С потерями
Размер потока : 19,9 Мбайт (17%)
Дата кодирования : UTC 2012-02-18 17:07:40
Дата пометки : UTC 2012-02-18 17:07:40

06 Три злых волка (The Three Bad Wolves)
Общее
Полное имя : Grimm.S01E06.rus.LostFilm.TV.3gp
Формат : MPEG-4
Профиль формата : 3GPP Media Release 4
Идентификатор кодека : 3gp4
Размер файла : 115 Мбайт
Продолжительность : 43 м.
Режим общего битрейта : Переменный
Общий поток : 369 Кбит/сек
Дата кодирования : UTC 2012-02-18 17:09:30
Дата пометки : UTC 2012-02-18 17:09:30

Видео
Идентификатор : 1
Формат : MPEG-4 Visual
Профиль формата : [email protected]
Параметр BVOP формата : Нет
Параметр QPel формата : Нет
Параметр GMC формата : Без точки перехода
Параметр матрицы формата : Default (H.263)
Идентификатор кодека : 20
Продолжительность : 43 м.
Битрейт : 302 Кбит/сек
Ширина : 320 пикселей
Высота : 180 пикселей
Соотношение сторон : 16:9
Режим частоты кадров : Постоянный
Частота кадров : 15,000 кадров/сек
Цветовое пространство : YUV
Субдискретизация насыщенности : 4:2:0
Битовая глубина : 8 бит
Тип развёртки : Прогрессивная
Метод сжатия : С потерями
Бит/(Пиксели*Кадры) : 0.349
Размер потока : 93,8 Мбайт (82%)
Библиотека кодирования : XviD 63
Дата кодирования : UTC 2012-02-18 17:09:30
Дата пометки : UTC 2012-02-18 17:09:30

Аудио
Идентификатор : 2
Формат : AAC
Формат/Информация : Advanced Audio Codec
Профиль формата : LC
Идентификатор кодека : 40
Продолжительность : 43 м.
Вид битрейта : Переменный
Битрейт : 63,9 Кбит/сек
Каналы : 2 канала
Расположение каналов : Front: L R
Частота : 44,1 КГц
Метод сжатия : С потерями
Размер потока : 19,9 Мбайт (17%)
Дата кодирования : UTC 2012-02-18 17:09:30
Дата пометки : UTC 2012-02-18 17:09:30

07 Брось мне косу свою (Let Your Hair Down)
Общее
Полное имя : Grimm.S01E07.rus.LostFilm.TV.3gp
Формат : MPEG-4
Профиль формата : 3GPP Media Release 4
Идентификатор кодека : 3gp4
Размер файла : 115 Мбайт
Продолжительность : 43 м.
Режим общего битрейта : Переменный
Общий поток : 369 Кбит/сек
Дата кодирования : UTC 2012-02-18 17:27:38
Дата пометки : UTC 2012-02-18 17:27:38

Видео
Идентификатор : 1
Формат : MPEG-4 Visual
Профиль формата : [email protected]
Параметр BVOP формата : Нет
Параметр QPel формата : Нет
Параметр GMC формата : Без точки перехода
Параметр матрицы формата : Default (H.263)
Идентификатор кодека : 20
Продолжительность : 43 м.
Битрейт : 302 Кбит/сек
Ширина : 320 пикселей
Высота : 180 пикселей
Соотношение сторон : 16:9
Режим частоты кадров : Постоянный
Частота кадров : 15,000 кадров/сек
Цветовое пространство : YUV
Субдискретизация насыщенности : 4:2:0
Битовая глубина : 8 бит
Тип развёртки : Прогрессивная
Метод сжатия : С потерями
Бит/(Пиксели*Кадры) : 0.349
Размер потока : 93,9 Мбайт (82%)
Библиотека кодирования : XviD 63
Дата кодирования : UTC 2012-02-18 17:27:38
Дата пометки : UTC 2012-02-18 17:27:38

Аудио
Идентификатор : 2
Формат : AAC
Формат/Информация : Advanced Audio Codec
Профиль формата : LC
Идентификатор кодека : 40
Продолжительность : 43 м.
Вид битрейта : Переменный
Битрейт : 63,9 Кбит/сек
Каналы : 2 канала
Расположение каналов : Front: L R
Частота : 44,1 КГц
Метод сжатия : С потерями
Размер потока : 19,9 Мбайт (17%)
Дата кодирования : UTC 2012-02-18 17:27:38
Дата пометки : UTC 2012-02-18 17:27:38

08 Конец огры (Game Ogre)
Общее
Полное имя : Grimm.S01E08.rus.LostFilm.TV.3gp
Формат : MPEG-4
Профиль формата : 3GPP Media Release 4
Идентификатор кодека : 3gp4
Размер файла : 115 Мбайт
Продолжительность : 43 м.
Режим общего битрейта : Переменный
Общий поток : 369 Кбит/сек
Дата кодирования : UTC 2012-02-18 17:29:03
Дата пометки : UTC 2012-02-18 17:29:03

Видео
Идентификатор : 1
Формат : MPEG-4 Visual
Профиль формата : [email protected]
Параметр BVOP формата : Нет
Параметр QPel формата : Нет
Параметр GMC формата : Без точки перехода
Параметр матрицы формата : Default (H.263)
Идентификатор кодека : 20
Продолжительность : 43 м.
Битрейт : 302 Кбит/сек
Ширина : 320 пикселей
Высота : 180 пикселей
Соотношение сторон : 16:9
Режим частоты кадров : Постоянный
Частота кадров : 15,000 кадров/сек
Цветовое пространство : YUV
Субдискретизация насыщенности : 4:2:0
Битовая глубина : 8 бит
Тип развёртки : Прогрессивная
Метод сжатия : С потерями
Бит/(Пиксели*Кадры) : 0.349
Размер потока : 93,9 Мбайт (82%)
Библиотека кодирования : XviD 63
Дата кодирования : UTC 2012-02-18 17:29:03
Дата пометки : UTC 2012-02-18 17:29:03

Аудио
Идентификатор : 2
Формат : AAC
Формат/Информация : Advanced Audio Codec
Профиль формата : LC
Идентификатор кодека : 40
Продолжительность : 43 м.
Вид битрейта : Переменный
Битрейт : 64,0 Кбит/сек
Каналы : 2 канала
Расположение каналов : Front: L R
Частота : 44,1 КГц
Метод сжатия : С потерями
Размер потока : 19,9 Мбайт (17%)
Дата кодирования : UTC 2012-02-18 17:29:03
Дата пометки : UTC 2012-02-18 17:29:03

09 О мыши и человеке (Of Mouse and Man)
Общее
Полное имя : Grimm.S01E09.rus.LostFilm.TV.3gp
Формат : MPEG-4
Профиль формата : 3GPP Media Release 4
Идентификатор кодека : 3gp4
Размер файла : 115 Мбайт
Продолжительность : 43 м.
Режим общего битрейта : Переменный
Общий поток : 370 Кбит/сек
Дата кодирования : UTC 2012-02-18 17:46:36
Дата пометки : UTC 2012-02-18 17:46:36

Видео
Идентификатор : 1
Формат : MPEG-4 Visual
Профиль формата : [email protected]
Параметр BVOP формата : Нет
Параметр QPel формата : Нет
Параметр GMC формата : Без точки перехода
Параметр матрицы формата : Default (H.263)
Идентификатор кодека : 20
Продолжительность : 43 м.
Битрейт : 302 Кбит/сек
Ширина : 320 пикселей
Высота : 180 пикселей
Соотношение сторон : 16:9
Режим частоты кадров : Постоянный
Частота кадров : 15,000 кадров/сек
Цветовое пространство : YUV
Субдискретизация насыщенности : 4:2:0
Битовая глубина : 8 бит
Тип развёртки : Прогрессивная
Метод сжатия : С потерями
Бит/(Пиксели*Кадры) : 0.349
Размер потока : 93,7 Мбайт (82%)
Библиотека кодирования : XviD 63
Дата кодирования : UTC 2012-02-18 17:46:36
Дата пометки : UTC 2012-02-18 17:46:36

Аудио
Идентификатор : 2
Формат : AAC
Формат/Информация : Advanced Audio Codec
Профиль формата : LC
Идентификатор кодека : 40
Продолжительность : 43 м.
Вид битрейта : Переменный
Битрейт : 64,0 Кбит/сек
Каналы : 2 канала
Расположение каналов : Front: L R
Частота : 44,1 КГц
Метод сжатия : С потерями
Размер потока : 19,9 Мбайт (17%)
Дата кодирования : UTC 2012-02-18 17:46:36
Дата пометки : UTC 2012-02-18 17:46:36

10 Мясорубка (Organ Grinder)
Общее
Полное имя : Grimm.S01E10.rus.LostFilm.TV.3gp
Формат : MPEG-4
Профиль формата : 3GPP Media Release 4
Идентификатор кодека : 3gp4
Размер файла : 114 Мбайт
Продолжительность : 43 м.
Режим общего битрейта : Переменный
Общий поток : 368 Кбит/сек
Дата кодирования : UTC 2012-02-18 17:47:50
Дата пометки : UTC 2012-02-18 17:47:50

Видео
Идентификатор : 1
Формат : MPEG-4 Visual
Профиль формата : [email protected]
Параметр BVOP формата : Нет
Параметр QPel формата : Нет
Параметр GMC формата : Без точки перехода
Параметр матрицы формата : Default (H.263)
Идентификатор кодека : 20
Продолжительность : 43 м.
Битрейт : 300 Кбит/сек
Ширина : 320 пикселей
Высота : 180 пикселей
Соотношение сторон : 16:9
Режим частоты кадров : Постоянный
Частота кадров : 15,000 кадров/сек
Цветовое пространство : YUV
Субдискретизация насыщенности : 4:2:0
Битовая глубина : 8 бит
Тип развёртки : Прогрессивная
Метод сжатия : С потерями
Бит/(Пиксели*Кадры) : 0.348
Размер потока : 93,2 Мбайт (82%)
Библиотека кодирования : XviD 63
Дата кодирования : UTC 2012-02-18 17:47:50
Дата пометки : UTC 2012-02-18 17:47:50

Аудио
Идентификатор : 2
Формат : AAC
Формат/Информация : Advanced Audio Codec
Профиль формата : LC
Идентификатор кодека : 40
Продолжительность : 43 м.
Вид битрейта : Переменный
Битрейт : 63,9 Кбит/сек
Каналы : 2 канала
Расположение каналов : Front: L R
Частота : 44,1 КГц
Метод сжатия : С потерями
Размер потока : 19,8 Мбайт (17%)
Дата кодирования : UTC 2012-02-18 17:47:50
Дата пометки : UTC 2012-02-18 17:47:50

11 Тарантелла (Tarantella)
Общее
Полное имя : Grimm.S01E11.rus.LostFilm.TV.3gp
Формат : MPEG-4
Профиль формата : 3GPP Media Release 4
Идентификатор кодека : 3gp4
Размер файла : 113 Мбайт
Продолжительность : 42 м.
Режим общего битрейта : Переменный
Общий поток : 368 Кбит/сек
Дата кодирования : UTC 2012-02-18 18:06:24
Дата пометки : UTC 2012-02-18 18:06:24

Видео
Идентификатор : 1
Формат : MPEG-4 Visual
Профиль формата : [email protected]
Параметр BVOP формата : Нет
Параметр QPel формата : Нет
Параметр GMC формата : Без точки перехода
Параметр матрицы формата : Default (H.263)
Идентификатор кодека : 20
Продолжительность : 42 м.
Битрейт : 300 Кбит/сек
Ширина : 320 пикселей
Высота : 180 пикселей
Соотношение сторон : 16:9
Режим частоты кадров : Постоянный
Частота кадров : 15,000 кадров/сек
Цветовое пространство : YUV
Субдискретизация насыщенности : 4:2:0
Битовая глубина : 8 бит
Тип развёртки : Прогрессивная
Метод сжатия : С потерями
Бит/(Пиксели*Кадры) : 0.347
Размер потока : 92,2 Мбайт (82%)
Библиотека кодирования : XviD 63
Дата кодирования : UTC 2012-02-18 18:06:24
Дата пометки : UTC 2012-02-18 18:06:24

Аудио
Идентификатор : 2
Формат : AAC
Формат/Информация : Advanced Audio Codec
Профиль формата : LC
Идентификатор кодека : 40
Продолжительность : 42 м.
Вид битрейта : Переменный
Битрейт : 64,0 Кбит/сек
Каналы : 2 канала
Расположение каналов : Front: L R
Частота : 44,1 КГц
Метод сжатия : С потерями
Размер потока : 19,7 Мбайт (17%)
Дата кодирования : UTC 2012-02-18 18:06:24
Дата пометки : UTC 2012-02-18 18:06:24

12 Гримм- победитель
Общее
Полное имя : Grimm.S01E12.rus.LostFilm.TV.3gp
Формат : MPEG-4
Профиль формата : 3GPP Media Release 4
Идентификатор кодека : 3gp4
Размер файла : 150 Мбайт
Продолжительность : 43 м.
Режим общего битрейта : Переменный
Общий поток : 484 Кбит/сек
Дата кодирования : UTC 2012-03-03 18:06:37
Дата пометки : UTC 2012-03-03 18:06:37

Видео
Идентификатор : 1
Формат : MPEG-4 Visual
Профиль формата : [email protected]
Параметр BVOP формата : Нет
Параметр QPel формата : Нет
Параметр GMC формата : Без точки перехода
Параметр матрицы формата : Default (H.263)
Идентификатор кодека : 20
Продолжительность : 43 м.
Битрейт : 352 Кбит/сек
Ширина : 320 пикселей
Высота : 180 пикселей
Соотношение сторон : 16:9
Режим частоты кадров : Постоянный
Частота кадров : 20,000 кадров/сек
Цветовое пространство : YUV
Субдискретизация насыщенности : 4:2:0
Битовая глубина : 8 бит
Тип развёртки : Прогрессивная
Метод сжатия : С потерями
Бит/(Пиксели*Кадры) : 0.306
Размер потока : 109 Мбайт (73%)
Библиотека кодирования : XviD 1.1.2 (UTC 2006-11-01)
Дата кодирования : UTC 2012-03-03 18:06:37
Дата пометки : UTC 2012-03-03 18:06:37

Аудио
Идентификатор : 2
Формат : AAC
Формат/Информация : Advanced Audio Codec
Профиль формата : LC
Идентификатор кодека : 40
Продолжительность : 43 м.
Вид битрейта : Переменный
Битрейт : 128 Кбит/сек
Каналы : 2 канала
Расположение каналов : Front: L R
Частота : 44,1 КГц
Метод сжатия : С потерями
Размер потока : 39,7 Мбайт (26%)
Дата кодирования : UTC 2012-03-03 18:06:37
Дата пометки : UTC 2012-03-03 18:06:37


Трекер:  [ 08-Май-2012 10:02 ]

  

Скачать .torrent

Размер .torrent файла 12 KB


Размер: 2.08 GB
Хэш (hash) релиза: bb7ec8ec8f7f2d7fc37658daf6e538ca2d9b5df1

Торренты, похожие на [SERIAL] Гримм Grimm скачать торрент

Форум Название Автор Размер S L Добавлен
Видео (Фильмы/Клипы) ·· [SERIAL] Гримм / Grimm / Сезон 1-2 / Серии: 1-12 (22) (Омар Мадха / Omar Madha, Холли Дэйл / Holly Dale) [2011-2013, ужасы, фэнтези, драма, детектив, WEB-DLRip] [MP4, 480x] (LostFilm) Galfimbul 48306793944.5 GB 0 0 1361722115

19:08

24-Фев-13

Еще никто не оставлял запись к записи скачать торрент [SERIAL] Гримм Grimm . Будь первым!

!Обратная связь