Mafia Blues 2 : La rechute | White Fang (2018) | Моя мачеха - инопланетянка / My Stepmother Is an Alien (1988) WEB-DL 720p | P

Скачать через торрент [VIDEO] Зомби по имени Шон Shaun of the Dead бесплатно русская версия torrent активатор

Статистика раздачи
Размер:  639 MB   |    Зарегистрирован:  6 лет 2 месяца   |    .torrent скачан:  41 раз   |   
Раздают:  1  
   
загрузка...
 
Автор Сообщение

Galfimbul

avatar Galfimbul


Зомби по имени Шон / Shaun of the Dead

Год выпуска: 2004

Страна: Великобритания, Франция
Жанр: Комедийный ужастик
Продолжительность: 01:39:27
Перевод: Профессиональный (двухголосый)
Русские субтитры: нет

Режиссер: Эдгар Райт / Edgar Wright

В ролях: Саймон Пегг, Кейт Эшфилд, Ник Фрост, Люси Дэвис, Дилан Моран

Описание: Жизнь Шона похожа на бесконечный, тоскливый сон: нудная работа, бытовые дрязги, «разборки» с подружкой и проблемы с мамой. Единственная отдушина нашего парня - местная пивная, где он после работы «заседает» со своим другом по имени Эд.
Вы не поверите, но мёртвецы залежались в могилах: они решили разнообразить своё скучное существование и собрались «прошвырнуться» по городу, полакомившись свежей живой плотью!
Начинается зомби-эпидемия с участием огромного количества распоясавшихся живых трупов, которые весьма проголодались и страстно жаждут погрызть человеческое мяско!
И кто, как Вы думаете, сможет положить конец зловещему рассвету мертвецов?! Конечно же Шон, который, ради такого случая, восстал…с дивана, вооружился битой и приготовился надавать зомби основательных тумаков! Теперь наш новоявленный супергерой должен спасти не только человечество, но и …свою коллекцию грампластинок!
Качество: BDRip
Формат: MP4
Видео кодек: XviD
Аудио кодек: AAC
Видео: XviD, 640x280, 2.25:1, 768 Kbps, 23.976 fps
Аудио: AAC, 128 Kbps, 48.0 KHz, 2 channels
  
GeneralComplete name : D:\!РИПЫ\Новая папка\Shaun of the Dead (2004).mp4Format : MPEG-4Format profile : Base Media / Version 2Codec ID : mp42File size : 639 MiBDuration : 1h 39mnOverall bit rate : 899 KbpsEncoded date : UTC 2012-03-01 05:37:44Tagged date : UTC 2012-03-01 05:37:44

VideoID : 201Format : MPEG-4 VisualFormat profile : Advanced [email protected] settings, BVOP : NoFormat settings, QPel : NoFormat settings, GMC : No warppointsFormat settings, Matrix : Default (H.263)Codec ID : 20Duration : 1h 39mnBit rate mode : VariableBit rate : 768 KbpsMaximum bit rate : 2 670 KbpsWidth : 640 pixelsHeight : 280 pixelsDisplay aspect ratio : 2.25:1Frame rate mode : VariableFrame rate : 23.886 fpsOriginal frame rate : 23.976 fpsMinimum frame rate : 0.235 fpsMaximum frame rate : 23.976 fpsColor space : YUVChroma subsampling : 4:2:0Bit depth : 8 bitsScan type : ProgressiveCompression mode : LossyBits/(Pixel*Frame) : 0.179Stream size : 546 MiB (85%)Title : Imported with GPAC 0.4.6-DEV (build 1)Writing library : XviD 1.2.1 (UTC 2008-12-04)Encoded date : UTC 2012-03-01 05:37:44Tagged date : UTC 2012-03-01 05:38:07

AudioID : 101Format : AACFormat/Info : Advanced Audio CodecFormat profile : LCCodec ID : 40Duration : 1h 39mnBit rate mode : VariableBit rate : 128 KbpsMaximum bit rate : 159 KbpsChannel(s) : 2 channelsChannel positions : Front: L RSampling rate : 48.0 KHzCompression mode : LossyStream size : 91.0 MiB (14%)Encoded date : UTC 2012-03-01 05:38:05Tagged date : UTC 2012-03-01 05:38:07



Трекер:  [ 07-Май-2012 15:32 ]

  

Скачать .torrent

Размер .torrent файла 13 KB


Размер: 639 MB
Хэш (hash) релиза: 10135280dcf63f891e83ef99dc1b8cc4ca947388

Еще никто не оставлял запись к записи скачать торрент [VIDEO] Зомби по имени Шон Shaun of the Dead . Будь первым!

!Обратная связь