Techniques de base - Menuiserie : assemblages (L'essentiel du bricolage) | Rome Kanda | Кулинария

Скачать через торрент [VIDEO] Неизвестный Unknown бесплатно русская версия torrent активатор

Статистика раздачи
Размер:  727 MB   |    Зарегистрирован:  6 лет 2 месяца   |    .torrent скачан:  46 раз   |   
Раздают:  1  
   
загрузка...
 
Автор Сообщение

Galfimbul

avatar Galfimbul


Неизвестный / Unknown

Год выпуска: 2011

Страна: США, Германия, Канада, Франция, Япония, Великобрит
Жанр: триллер, драма, детектив
Продолжительность: 01:53:11
Перевод: Профессиональный (полное дублирование)
Русские субтитры: есть (форсированные: надписи, диалоги на немецком и пр.)

Режиссер: Жауме Серра / Jaume Collet-Serra

В ролях: Лиам Нисон, Дайан Крюгер, Дженьюэри Джонс, Эйдан Куинн, Бруно Ганц, Фрэнк Ланджелла, Себастьян Кох, Оливье Шнайдер, Стипе Эрчег, Райнер Бок

Описание: История повествует о мужчине, который после пробуждения от комы обнаруживает, что его личность присвоена другим, и понимает, что никто, даже собственная жена, не верит ему. И тогда при помощи незнакомой молодой женщины-таксистки герой стремится доказать, кто он такой.
Качество: BDRip
Формат: MP4
Видео кодек: XviD
Аудио кодек: AAC
Видео: XviD, 640x272, 2.35:1, 768 Kbps, 23.976 fps
Аудио: AAC, 128 Kbps, 48.0 KHz, 2 channels
  
GeneralComplete name : D:\!РИПЫ\Новая папка\Unknown (2011).mp4Format : MPEG-4Format profile : Base Media / Version 2Codec ID : mp42File size : 727 MiBDuration : 1h 53mnOverall bit rate : 898 KbpsEncoded date : UTC 2012-02-29 17:14:16Tagged date : UTC 2012-02-29 17:14:16

VideoID : 201Format : MPEG-4 VisualFormat profile : Advanced [email protected] settings, BVOP : NoFormat settings, QPel : NoFormat settings, GMC : No warppointsFormat settings, Matrix : Default (H.263)Codec ID : 20Duration : 1h 53mnBit rate mode : VariableBit rate : 768 KbpsMaximum bit rate : 5 857 KbpsWidth : 640 pixelsHeight : 272 pixelsDisplay aspect ratio : 2.35:1Frame rate mode : VariableFrame rate : 23.918 fpsOriginal frame rate : 23.976 fpsMinimum frame rate : 0.116 fpsMaximum frame rate : 23.976 fpsColor space : YUVChroma subsampling : 4:2:0Bit depth : 8 bitsScan type : ProgressiveCompression mode : LossyBits/(Pixel*Frame) : 0.184Stream size : 622 MiB (85%)Title : Imported with GPAC 0.4.6-DEV (build 1)Writing library : XviD 1.2.1 (UTC 2008-12-04)Encoded date : UTC 2012-02-29 17:14:16Tagged date : UTC 2012-02-29 17:14:55Material_Duration : 6789992Material_StreamSize : 651765202Material_FrameCount : 162401

AudioID : 101Format : AACFormat/Info : Advanced Audio CodecFormat profile : LCCodec ID : 40Duration : 1h 53mnBit rate mode : VariableBit rate : 128 KbpsMaximum bit rate : 184 KbpsChannel(s) : 2 channelsChannel positions : Front: L RSampling rate : 48.0 KHzCompression mode : LossyStream size : 104 MiB (14%)Encoded date : UTC 2012-02-29 17:14:53Tagged date : UTC 2012-02-29 17:14:55



Трекер:  [ 07-Май-2012 15:32 ]

  

Скачать .torrent

Размер .torrent файла 14 KB


Размер: 727 MB
Хэш (hash) релиза: c87e9edd0544eef324d597503100ef31f1ad78e9

Еще никто не оставлял запись к записи скачать торрент [VIDEO] Неизвестный Unknown . Будь первым!

!Обратная связь