Mini-Loup fait les 400 coups | amar hiyar majha by sathi ghosh | Hulk und das Team S.M.A.S.H.

Скачать через торрент [VIDEO] Сайлент Хилл Silent Hill бесплатно русская версия torrent активатор

Статистика раздачи
Размер:  805 MB   |    Зарегистрирован:  6 лет 2 месяца   |    .torrent скачан:  128 раз   |   
Раздают:  1  
   
загрузка...
 
Автор Сообщение

Galfimbul

avatar Galfimbul


Сайлент Хилл / Silent Hill

Год выпуска: 2006

Страна: США, Канада, Франция, Япония
Жанр: мистический триллер
Продолжительность: 02:05:19
Перевод: Профессиональный (полное дублирование)
Русские субтитры: нет

Режиссер: Кристоф Ганс / Christophe Gans

В ролях: Рада Митчел (Rose Da Silva), Шон Бин (Christopher Da Silva), Лори Холден (Cybil Bennett), Дебора Кара Ангер (Dahlia Gillespie), Ким Коутс (Officer Thomas Gucci), Таня Аллен (Anna), Элис Крайдж (Christabella), Джоделль Ферланд (Sharon / Alessa), Коллин Уильямс (Archivist), Рон Гэбриел (Old Mechanic), Ив Кроуфорд (Sister Margaret), Дерек Ритшель (Young Police Officer)

Описание: Молодая мать, отчаявшись найти лекарство от таинственного заболевания своей дочери Шэрон, отказывается отдать ее в психиатрическую лечебницу. Вместе с Шэрон она отправляется в Сайлент Хилл, город, название которого ее дочь постоянно твердит во сне. Несмотря на сопротивление мужа, Роуз убеждена, что найдет там ответы, в которых так нуждается. Но когда они подъезжают к заброшенному городу, на дороге появляется таинственная фигура, Роуз резко тормозит, и машина попадает в аварию… Придя в себя, она обнаруживает, что Шэрон исчезла…
Качество: BDRip
Формат: MP4
Видео кодек: XviD
Аудио кодек: AAC
Видео: XviD, 640x272, 2.35:1, 768 Kbps, 23.976 fps
Аудио: AAC, 128 Kbps, 48.0 KHz, 2 channels
  
GeneralComplete name : D:\!РИПЫ\Новая папка\Silent Hill (2006).mp4Format : MPEG-4Format profile : Base Media / Version 2Codec ID : mp42File size : 805 MiBDuration : 2h 5mnOverall bit rate : 898 KbpsEncoded date : UTC 2012-02-29 21:12:50Tagged date : UTC 2012-02-29 21:12:50

VideoID : 201Format : MPEG-4 VisualFormat profile : Advanced [email protected] settings, BVOP : NoFormat settings, QPel : NoFormat settings, GMC : No warppointsFormat settings, Matrix : Default (H.263)Codec ID : 20Duration : 2h 5mnBit rate mode : VariableBit rate : 768 KbpsMaximum bit rate : 4 468 KbpsWidth : 640 pixelsHeight : 272 pixelsDisplay aspect ratio : 2.35:1Frame rate mode : VariableFrame rate : 23.842 fpsOriginal frame rate : 23.976 fpsMinimum frame rate : 0.113 fpsMaximum frame rate : 23.976 fpsColor space : YUVChroma subsampling : 4:2:0Bit depth : 8 bitsScan type : ProgressiveCompression mode : LossyBits/(Pixel*Frame) : 0.185Stream size : 688 MiB (85%)Title : Imported with GPAC 0.4.6-DEV (build 1)Writing library : XviD 1.2.1 (UTC 2008-12-04)Encoded date : UTC 2012-02-29 21:12:50Tagged date : UTC 2012-02-29 21:13:27

AudioID : 101Format : AACFormat/Info : Advanced Audio CodecFormat profile : LCCodec ID : 40Duration : 2h 5mnBit rate mode : VariableBit rate : 128 KbpsMaximum bit rate : 185 KbpsChannel(s) : 2 channelsChannel positions : Front: L RSampling rate : 48.0 KHzCompression mode : LossyStream size : 115 MiB (14%)Encoded date : UTC 2012-02-29 21:13:25Tagged date : UTC 2012-02-29 21:13:27



Трекер:  [ 07-Май-2012 15:32 ]

  

Скачать .torrent

Размер .torrent файла 16 KB


Размер: 805 MB
Хэш (hash) релиза: 4bb2f623bb21bd08ef505d9a405cd44e4ad7567d

Еще никто не оставлял запись к записи скачать торрент [VIDEO] Сайлент Хилл Silent Hill . Будь первым!

!Обратная связь