I Feel Pretty (2018) | Bungou Stray Dogs | Eps1 The 100 - Season 5 (2018)

Скачать через торрент [MULT] Бэтмен против Дракулы The Batman vs Dracula бесплатно русская версия torrent активатор

Статистика раздачи
Размер:  404 MB   |    Зарегистрирован:  6 лет 2 месяца   |    .torrent скачан:  34 раза   |   
Раздают:  1  
   
загрузка...
 
Автор Сообщение

Galfimbul

avatar Galfimbul


Бэтмен против Дракулы / The Batman vs Dracula
Год выпуска: 2005

Страна: США
Жанр: анимация
Продолжительность: 01:19:55
Перевод: Профессиональный (полное дублирование)
Русские субтитры: нет
Режиссер: Майкл Гогуэн / Michael Goguen
Описание: В то время как Готэм Сити спит под прикрытием темноты, вылетают две легендарные мыши.
Одна из них превращает город в армию вампаров, а другая пытается сделать все возможное, чтобы предотвратить это событие. Но Дракула - зто не просто один из врагов Бэтмена, он обладает сверхъестественными способностями, скоростью и умом. Хотя даже со своим арсеналом технических приспособлений, Черный Рыцарь смертен. В этом фантастическом полнометражном мультипликационном фильме участвуют такие любимые персонажи, как Джокер, Пингвин и Вики Вейн!
Качество: DVDRip
Формат: AVI
Видео кодек: XviD
Аудио кодек: MP3
Видео: XVID 640x472 25.00fps 580Kbps
Аудио: MPEG Audio Layer 3 48000Hz stereo 114Kbps
Релиз Групп:
| |
  
ОбщееПолное имя : G:\BATMAN.aviФормат : AVIФормат/Информация : Audio Video InterleaveРазмер файла : 404 МбайтПродолжительность : 1 ч. 19 м.Режим общего битрейта : ПеременныйОбщий поток : 706 Кбит/секПрограмма кодирования : VirtualDubMod 1.5.10.3 | www.virtualdub-fr.org || (build 2550/release)Библиотека кодирования : VirtualDubMod build 2550/release

ВидеоИдентификатор : 0Формат : MPEG-4 VisualПрофиль формата : Advanced [email protected]Параметр BVOP формата : 2Параметр QPel формата : НетПараметр GMC формата : Без точки переходаПараметр матрицы формата : Default (H.263)Режим смешивания : Сжатый битовый потокИдентификатор кодека : XVIDИдентификатор кодека/Подсказка : XviDПродолжительность : 1 ч. 19 м.Битрейт : 579 Кбит/секШирина : 640 пикселейВысота : 472 пикселяСоотношение сторон : 4:3Частота кадров : 25,000 кадров/секЦветовое пространство : YUVСубдискретизация насыщенности : 4:2:0Битовая глубина : 8 битТип развёртки : ПрогрессивнаяМетод сжатия : С потерямиБит/(Пиксели*Кадры) : 0.077Размер потока : 331 Мбайт (82%)Библиотека кодирования : XviD 1.2.1 (UTC 2008-12-04)

АудиоИдентификатор : 1Формат : MPEG AudioВерсия формата : Version 1Профиль формата : Layer 3Режим : Joint stereoРасширение режима : MS StereoИдентификатор кодека : 55Идентификатор кодека/Подсказка : MP3Продолжительность : 1 ч. 19 м.Вид битрейта : ПеременныйБитрейт : 114 Кбит/секНоминальный битрейт : 128 Кбит/секКаналы : 2 каналаЧастота : 48,0 КГцМетод сжатия : С потерямиРазмер потока : 65,3 Мбайт (16%)Выравнивание : Соединение по промежуткамПродолжительность промежутка : 24 мс. (0,60 видеокадр)Время предзагрузки промежутка : 161 мс.Библиотека кодирования : LAME3.98rНастройки программы : -m j -V 4 -q 2 -lowpass 17 --abr 128


Трекер:  [ 07-Май-2012 23:22 ]

  

Скачать .torrent

Размер .torrent файла 16 KB


Размер: 404 MB
Хэш (hash) релиза: eaa3a96990dcfe857dd5c9106e90cbd94bd10471

Еще никто не оставлял запись к записи скачать торрент [MULT] Бэтмен против Дракулы The Batman vs Dracula . Будь первым!

!Обратная связь