Ruk Nai Marn Mek | the last time i lied | Droit privé

Скачать через торрент [MULT] Принц Египта The Prince Of Egypt бесплатно русская версия torrent активатор

Статистика раздачи
Размер:  472 MB   |    Зарегистрирован:  6 лет 2 месяца   |    .torrent скачан:  49 раз   |   
Раздают:  1  
   
загрузка...
 
Автор Сообщение

Galfimbul

avatar Galfimbul


Принц Египта / The Prince Of Egypt
Год выпуска: 1998

Страна: США
Жанр: Мультипликация
Продолжительность: 01:34:40
Перевод: Профессиональный (полное дублирование)
Русские субтитры: нет
Режиссер: Бренда Чэпман / Brenda Chapman, Стив Хикнер / Steve Hickner, Саймон Уэллс / Simon Wells
Описание: Эта история случилась на заре цивилизации в древнем Египте. Стремительный и величавый Нил вынес на берег перед дворцом фараона корзину с младенцем. Могущественный правитель усыновил крошечного мальчика и дал ему имя Моисей.
Шли годы… Моисей и его брат Рамзес росли вместе. Но придет день, когда один из братьев станет владыкой величайшей империи на земле, а другой — святым… Противоборство героев навсегда изменит их судьбы и историю человечества.
Качество: HDTVRip
Формат: AVI
Видео кодек: XviD
Аудио кодек: MP3
Видео: XVID 640x360 25.00fps 580Kbps
Аудио: MPEG Audio Layer 3 48000Hz stereo 105Kbps
Релиз Групп:
| |
  
ОбщееПолное имя : G:\The.Prince.Of.Egypt.aviФормат : AVIФормат/Информация : Audio Video InterleaveРазмер файла : 472 МбайтПродолжительность : 1 ч. 34 м.Режим общего битрейта : ПеременныйОбщий поток : 698 Кбит/секПрограмма кодирования : VirtualDubMod 1.5.10.3 | www.virtualdub-fr.org || (build 2550/release)Библиотека кодирования : VirtualDubMod build 2550/release

ВидеоИдентификатор : 0Формат : MPEG-4 VisualПрофиль формата : Advanced [email protected]Параметр BVOP формата : 2Параметр QPel формата : НетПараметр GMC формата : Без точки переходаПараметр матрицы формата : Default (H.263)Режим смешивания : Сжатый битовый потокИдентификатор кодека : XVIDИдентификатор кодека/Подсказка : XviDПродолжительность : 1 ч. 34 м.Битрейт : 579 Кбит/секШирина : 640 пикселейВысота : 360 пикселейСоотношение сторон : 16:9Частота кадров : 25,000 кадров/секЦветовое пространство : YUVСубдискретизация насыщенности : 4:2:0Битовая глубина : 8 битТип развёртки : ПрогрессивнаяМетод сжатия : С потерямиБит/(Пиксели*Кадры) : 0.101Размер потока : 392 Мбайт (83%)Библиотека кодирования : XviD 1.2.1 (UTC 2008-12-04)

АудиоИдентификатор : 1Формат : MPEG AudioВерсия формата : Version 1Профиль формата : Layer 3Режим : Joint stereoРасширение режима : MS StereoИдентификатор кодека : 55Идентификатор кодека/Подсказка : MP3Продолжительность : 1 ч. 34 м.Вид битрейта : ПеременныйБитрейт : 105 Кбит/секНоминальный битрейт : 128 Кбит/секКаналы : 2 каналаЧастота : 48,0 КГцМетод сжатия : С потерямиРазмер потока : 71,4 Мбайт (15%)Выравнивание : Соединение по промежуткамПродолжительность промежутка : 24 мс. (0,60 видеокадр)Время предзагрузки промежутка : 174 мс.Библиотека кодирования : LAME3.98rНастройки программы : -m j -V 4 -q 2 -lowpass 17 --abr 128


Трекер:  [ 07-Май-2012 23:22 ]

  

Скачать .torrent

Размер .torrent файла 19 KB


Размер: 472 MB
Хэш (hash) релиза: e22b96a663647508d137946857049f64be5f2e05

Еще никто не оставлял запись к записи скачать торрент [MULT] Принц Египта The Prince Of Egypt . Будь первым!

!Обратная связь