..."/> ..."> Clarks Mens Clarks Desert Trek Plain Toe Derby UUJ8C | Для взрослых | Спасение / Salvation [02x01-04 из 13] HDTVRip | ColdFilm

Скачать через торрент [VIDEO] Иногда великая идея... Sometimes a Great Notion бесплатно русская версия torrent активатор

Статистика раздачи
Размер:  377 MB   |    Зарегистрирован:  6 лет 2 месяца   |    .torrent скачан:  29 раз   |   
Раздают:  1  
   
загрузка...
 
Автор Сообщение

Galfimbul

avatar Galfimbul


Иногда великая идея... / Sometimes a Great Notion

Год выпуска: 1970

Страна: США
Жанр: Drama, Action, Adventure
Продолжительность: 01:49:00
Перевод: Профессиональный (многоголосый, закадровый)
Русские субтитры: нет
Режиссер: Пол Ньюман / Paul Newman
В ролях: Пол Ньюман, Генри Фонда, Ли Ремик, Майкл Саразин, Ричард Джэкел, Линда Лоусон, Клифф Поттс, Сэм Гилман, Ли Де Бру, Джим Берк

Описание: Перед вами экранизация грандиознейшего романа XX века, и написал его Кен Кизи - великий американский писатель, гуру 1960-х, "веселый проказник" и "человек от земли", джек-лондоновский персонаж и глашатай новой реальности, создавший не менее гениальное произведение "Полет над гнездом кукушки".
В орегонских лесах, на берегу великой реки Ваконды-Ауги, в городке Ваконда жизнь подобна древнегреческой трагедии без права на ошибку. Посреди слякоти, и осени, и отчаянной гонки лесоповала, и обреченной забастовки клан Стэмперов, записных упрямцев, бродяг и одиночек, живет по своим законам, и нет такой силы, которая способна их сломить. Каждодневная борьба со стихией и непомерно тяжкий труд здесь обретают подлинно ветхозаветные масштабы. Обыкновенные люди вырастают до всесильных гигантов. История любви, работы, упорства и долга оборачивается величайшей притчей столетия. На этой земле полутонов во множестве, однако не бывает полумер и ничего невозможно сделать вполсилы.

У нас в стране этот фильм, как и сама книга, известны так же под названиями "Порою блажь великая", "Порою нестерпимо хочется...", "Не уступай ни дюйма", "Ни шагу назад".
Качество: DVDRip
Формат: 3GP
Видео кодек: MPEG4
Аудио кодек: AAC
Видео: 320x136 (2.35:1), 25.000 fps, 350 kbps
Аудио: AAC, 48KHz, (2 chnls, L R), 128 kbps
Общее
Формат : MPEG-4
Профиль формата : 3GPP Media Release 4
Идентификатор кодека : 3gp4
Размер файла : 377 Мбайт
Продолжительность : 1 ч. 49 м.
Режим общего битрейта : Переменный
Общий поток : 480 Кбит/сек

Видео
Идентификатор : 1
Формат : MPEG-4 Visual
Профиль формата : Advanced [email protected]
Параметр BVOP формата : Да
Параметр QPel формата : Нет
Параметр GMC формата : Без точки перехода
Параметр матрицы формата : Default (H.263)
Идентификатор кодека : 20
Продолжительность : 1 ч. 49 м.
Вид битрейта : Постоянный
Битрейт : 350 Кбит/сек
Ширина : 320 пикселей
Высота : 136 пикселей
Соотношение сторон : 2,35:1
Соотношение сторон в оригинале : 2,35:1
Режим частоты кадров : Постоянный
Частота кадров : 25,000 кадров/сек
Цветовое пространство : YUV
Субдискретизация насыщенности : 4:2:0
Битовая глубина : 8 бит
Тип развёртки : Прогрессивная
Метод сжатия : С потерями
Бит/(Пиксели*Кадры) : 0.322
Размер потока : 275 Мбайт (73%)
Библиотека кодирования : Lavc53.8.0
Язык : English

Аудио
Идентификатор : 2
Формат : AAC
Формат/Информация : Advanced Audio Codec
Профиль формата : LC
Идентификатор кодека : 40
Продолжительность : 1 ч. 49 м.
Вид битрейта : Переменный
Битрейт : 124 Кбит/сек
Максимальный битрейт : 128 Кбит/сек
Каналы : 2 канала
Расположение каналов : Front: L R
Частота : 48,0 КГц
Метод сжатия : С потерями
Размер потока : 97,4 Мбайт (26%)
Язык : Russian


Трекер:  [ 07-Май-2012 15:32 ]

  

Скачать .torrent

Размер .torrent файла 15 KB


Размер: 377 MB
Хэш (hash) релиза: d0063728f0840a2888e9a467ca42c686137578ba

Еще никто не оставлял запись к записи скачать торрент [VIDEO] Иногда великая идея... Sometimes a Great Notion . Будь первым!

!Обратная связь