El corredor del laberinto La cura mortal (2018) descarga gratuita la película completa
Kill la Kill

Скачать через торрент [VIDEO] Спеши любить Памятная прогулка бесплатно русская версия torrent активатор

Статистика раздачи
Размер:  679 MB   |    Зарегистрирован:  5 лет 11 месяцев   |    .torrent скачан:  51 раз   |   
Раздают:  1  
   
загрузка...
 
Автор Сообщение

Galfimbul

avatar Galfimbul


Спеши любить / Памятная прогулка / A Walk To Remember«Наша любовь, как ветер, ее не видишь, но чувствуешь...»
Год выпуска: 2002
[b]Продолжительность:
01:42:04
Производство: США
Жанр: драма, мелодрама
Перевод: Профессиональный (дублированный)[/b]
Субтитры: нет
Дата мировой премьеры: 23 января 2002
Режиссер: Адам Шенкман / Adam Shankman
Актеры: Шэйн Уэст, Мэнди Мур, Питер Койот, Дэрил Ханна, Лорен Джерман, Клейн Кроуфорд, Аль Томпсон, Пас де ла Уэрта и др.
Описание фильма:
Лэндон Картер — кумир своей школы: он независим, красив и жесток к изгоям. И конечно, он не замечает невзрачную Джэйми, думающую только об учебе. После очередной дурацкой выходки Картера заставляют заниматься с отстающими и играть в школьном спектакле.

Тут уж ему не обойтись без помощи скромной отличницы. Джэйми соглашается помочь Лэндону, но только если он пообещает, что не будет влюбляться в нее. Самонадеянный парень охотно дает клятву, но вскоре он убедится, что сдержать ее будет очень непросто…
Рейтинг:

Качество: HDTVRip | [b]Формат: MP4 | Видео кодек: XviD | Аудио кодек: AAC
Видео: 640x360 (AR 16:9), 800 Kbps, 23.976 fps | Аудио: 128 Kbps, 48.0 KHz, 2ch, Stereo[/b]
General
Complete name : K:\Torrents\Мои раздачи\[VIDEO4PDA] A Walk To Remember\A Walk To Remember.mp4
Format : MPEG-4
Format profile : Base Media / Version 2
Codec ID : mp42
File size : 679 MiB
Duration : 1h 42mn
Overall bit rate mode : Variable
Overall bit rate : 930 Kbps
Encoded date : UTC 2012-03-03 16:51:21
Tagged date : UTC 2012-03-03 16:51:21

Video
ID : 201
Format : MPEG-4 Visual
Format profile : Advanced [email protected]
Format settings, BVOP : No
Format settings, QPel : No
Format settings, GMC : No warppoints
Format settings, Matrix : Default (H.263)
Codec ID : 20
Duration : 1h 42mn
Bit rate mode : Variable
Bit rate : 800 Kbps
Maximum bit rate : 3 550 Kbps
Width : 640 pixels
Height : 360 pixels
Display aspect ratio : 16:9
Frame rate mode : Constant
Frame rate : 23.976 fps
Color space : YUV
Chroma subsampling : 4:2:0
Bit depth : 8 bits
Scan type : Progressive
Compression mode : Lossy
Bits/(Pixel*Frame) : 0.145
Stream size : 584 MiB (86%)
Writing library : XviD 61
Encoded date : UTC 2012-03-03 16:51:21
Tagged date : UTC 2012-03-03 16:52:11

Audio
ID : 101
Format : AAC
Format/Info : Advanced Audio Codec
Format profile : LC
Codec ID : 40
Duration : 1h 41mn
Bit rate mode : Variable
Bit rate : 128 Kbps
Maximum bit rate : 152 Kbps
Channel(s) : 2 channels
Channel positions : Front: L R
Sampling rate : 48.0 KHz
Compression mode : Lossy
Stream size : 93.3 MiB (14%)
Encoded date : UTC 2012-03-03 16:52:07
Tagged date : UTC 2012-03-03 16:52:11
Интересные факты:
- Картина была отснята всего за 39 дней, несмотря на то, что все это время Мэнди Мур могла сниматься лишь по 10 часов в сутки (в 2001 году актриса еще не достигла совершеннолетия).
- Фотографии Джэми на камине в Доме Салливанов являются фотографиями Мэнди Мур в детстве.
- События новеллы разворачиваются в 1958 году, однако создатели картины решили перенести действие в наше время.
- Джэми отдает Лэндону книгу своей матери со словами: «Не волнуйся, это не Библия». В одноименной новелле Николаса Спаркса Джэми отдает ему именно Библию, в тексте которой подчеркнуты любимые отрывки матери Джэми.
- Шэйну Уэсту настолько приглянулась машина, задействованная в процессе съемок, что после завершения работы он решил потратить 5 тысяч долларов на ее приобретение.
- После выхода картины один из поклонников Мэнди Мур назвал в ее честь звезду, как и в фильме.
- Город Бофорт, в котором происходят события фильма, действительно существует и находится в Северной Каролине.
- Сестра Николаса Спаркса умерла от рака, она является прототипом Джэйми Салливан.
- Режиссер фильма, Адам Шенкман, появляется в камео. Он играет санитара, везущего коляску, в которой сидит героиня Мэнди Мур.
- В первоначальном варианте сценария в предпоследней сцене фильма, когда Лэндон приезжает к отцу Джэйми, он отдает ему обручальное кольцо, говоря, что женился.

Киноляпы:
- В эпизоде, когда друзья спрашивают Лэндона, что он сказал полиции: к ним приближается Джейми, и на плечах у нее видно лямки от рюкзака; потом она проходит дальше, и ни рюкзака, ни лямок мы не видим;
- После эпизода, где Лэндон приходит к Джейми репетировать, есть короткая сцена, где Лэндон встречается с друзьями около школы; забавно, что все они будут одеты точно так же «пару недель спустя» — в эпизоде с плакатами в столовой;
- Эпизод, когда Лэндон видит, что Джейми идет на кладбище: он окликает ее, она поворачивается, а ее волосы, убранные в хвост, остаются у нее за спиной; в следующем кадре они уже у нее на плечах, а еще в следующем — снова за спиной;
- Когда Лэндон и Джейми стоят на кладбище около телескопа, то в первом кадре видна только кисть руки, устанавливающая телескоп, и видно, что это рука не Джейми, а скорее взрослого мужчины;
- В эпизоде, когда Лэндон приходит к Клэю Гепхардту попросить прощения, на входе в больницу на нем рубашка болотного цвета, а в палате Гепхардта — серая в белую полоску;
- Застежка на цепочке на шее Джейми во время выступления меняет свое положение;
- После спектакля мама Лэндона, обнимая его, кладет подбородок на его левое плечо и держит сценарий в правой руке, а в следующем кадре поднимает подбородок с правого плеча Лэндона, а сценарий держит в левой руке;
- В эпизоде, когда Лэндон говорит с отцом после спектакля: когда Лэндон произносит «Я не голоден», мимо них на выход проходит парень в зеленой кофте, сидевший рядом с мамой Лэндона; потом Лэндон уходит, его отец с досадой вздыхает, и мимо него снова из зала на выход проходит этот парень в зеленой кофте;
- Когда Лэндон идёт к Джэми в столовую, на нём синяя жилетка, а когда он ее находит, на нем уже белая рубашка.
- В эпизоде с плакатами в столовой на том плакате, который показывают крупным планом, девушка с лицом Джейми (только родинка у нее почему-то на другой щеке) одета в синий купальник; на тех плакатах, которые показывают мельком, купальника на девушке нет;
- Эпизод, когда Лэндон и Джейми ужинают в ресторане на берегу: когда они садятся за стол, небо ясное; когда заказывают сладкий чай, вокруг темнота; когда официант уходит, небо снова светлое;
- Лэндон говорит, что хочет понаблюдать планету Плутон; на самом деле Плутон был обнаружен в 1930 году лишь путем сличения фотографий с мощного телескопа, сделанных с разницей в несколько недель;
- В эпизоде, когда Лэндон и Джейми смотрят в новый телескоп на комету, Лэндон дважды убирает руку с телескопа: сначала на крупном плане, потом на общем;
- В эпизоде с кометой пару секунд явно видно её движение; в действительности кометы движутся слишком медленно, чтобы за несколько секунд или даже минут можно было заметить их сдвиг по небосклону.
- Во время выступления в спектакле с песней, где Джейми присаживается и наклоняется к Картеру, ясно видно, что челка то появляется, то исчезает.
Релиз подготовлен:



Трекер:  [ 07-Май-2012 15:32 ]

  

Скачать .torrent

Размер .torrent файла 13 KB


Размер: 679 MB
Хэш (hash) релиза: ee97ff4fc32642d699ec9f95d2584d0deabf55ef

Еще никто не оставлял запись к записи скачать торрент [VIDEO] Спеши любить Памятная прогулка . Будь первым!

!Обратная связь