Espionnage | Lego DC Comics Super Heroes : Aquaman FRENCH DVDRIP 2018 | Drug Lords HDTV 720p AC3 5.1

Скачать через торрент [MULT] Смурфики и волшебная флейта бесплатно русская версия torrent активатор

Статистика раздачи
Размер:  353 MB   |    Зарегистрирован:  6 лет 3 месяца   |    .torrent скачан:  56 раз   |   
Раздают:  1  
   
загрузка...
 
Автор Сообщение

Galfimbul

avatar Galfimbul


Смурфики и волшебная флейта (Смурфы и волшебная флейта) / La flûte à six schtroumpfs
Год выпуска: 1976

Страна: Франция, Бельгия
Жанр: Мультфильм, мюзикл, фэнтези, семейный, музыка
Продолжительность: 01:10:00
Перевод: Профессиональный (многоголосый, закадровый)
Русские субтитры: нет
Режиссер: Эдди Латест, Пейо / Eddie Lateste, Peyo
Описание: Смурфики — маленькие лесные существа небесно-голубого цвета, живущие в лесах средневековой Европы. Неугомонный характер смурфиков не позволяет им спокойно сидеть в своей деревне, наслаждаясь игрушечной жизнью в своём волшебном мире. Эти непоседы всегда находят приключения!..
Качество: SATRip
Формат: AVI
Видео кодек: XviD
Аудио кодек: MP3
Видео: XVID 640x360 25.00fps 580Kbps
Аудио: MPEG Audio Layer 3 48000Hz stereo 107Kbps
Релиз Групп:
| |
  
ОбщееПолное имя : G:\Smurfiki.i.volshebnaya.fleita.aviФормат : AVIФормат/Информация : Audio Video InterleaveРазмер файла : 353 МбайтПродолжительность : 1 ч. 10 м.Режим общего битрейта : ПеременныйОбщий поток : 699 Кбит/секПрограмма кодирования : VirtualDubMod 1.5.10.3 | www.virtualdub-fr.org || (build 2550/release)Библиотека кодирования : VirtualDubMod build 2550/release

ВидеоИдентификатор : 0Формат : MPEG-4 VisualПрофиль формата : Advanced [email protected]Параметр BVOP формата : 2Параметр QPel формата : НетПараметр GMC формата : Без точки переходаПараметр матрицы формата : Default (H.263)Режим смешивания : Сжатый битовый потокИдентификатор кодека : XVIDИдентификатор кодека/Подсказка : XviDПродолжительность : 1 ч. 10 м.Битрейт : 579 Кбит/секШирина : 640 пикселейВысота : 360 пикселейСоотношение сторон : 16:9Частота кадров : 25,000 кадров/секЦветовое пространство : YUVСубдискретизация насыщенности : 4:2:0Битовая глубина : 8 битТип развёртки : ПрогрессивнаяМетод сжатия : С потерямиБит/(Пиксели*Кадры) : 0.100Размер потока : 292 Мбайт (83%)Библиотека кодирования : XviD 1.2.1 (UTC 2008-12-04)

АудиоИдентификатор : 1Формат : MPEG AudioВерсия формата : Version 1Профиль формата : Layer 3Режим : Joint stereoРасширение режима : MS StereoИдентификатор кодека : 55Идентификатор кодека/Подсказка : MP3Продолжительность : 1 ч. 10 м.Вид битрейта : ПеременныйБитрейт : 108 Кбит/секНоминальный битрейт : 128 Кбит/секКаналы : 2 каналаЧастота : 48,0 КГцМетод сжатия : С потерямиРазмер потока : 54,3 Мбайт (15%)Выравнивание : Соединение по промежуткамПродолжительность промежутка : 24 мс. (0,60 видеокадр)Время предзагрузки промежутка : 495 мс.Библиотека кодирования : LAME3.98rНастройки программы : -m j -V 4 -q 2 -lowpass 17 --abr 128


Трекер:  [ 07-Май-2012 23:22 ]

  

Скачать .torrent

Размер .torrent файла 14 KB


Размер: 353 MB
Хэш (hash) релиза: 68f39d36a713c6aab0675c3feff270f8e5ddfd42

Еще никто не оставлял запись к записи скачать торрент [MULT] Смурфики и волшебная флейта . Будь первым!

!Обратная связь