Return to Never Land (2002) | Classics | Trickster: Edogawa Ranpo “Shounen Tanteidan” yori OVA

Скачать через торрент [VIDEO] Очень опасная штучка One for the Money бесплатно русская версия torrent активатор

Статистика раздачи
Размер:  541 MB   |    Зарегистрирован:  6 лет 2 месяца   |    .torrent скачан:  33 раза   |   
Раздают:  1  
   
загрузка...
 
Автор Сообщение

Galfimbul

avatar Galfimbul


Очень опасная штучка / One for the Money

Год выпуска: 2012
Страна: США
Жанр: комедия
Продолжительность: 1:31:18
Перевод: Профессиональный (полное дублирование)
Русские субтитры: нет

Режиссер: Джули Энн Робинсон / Julie Anne Robinson

В ролях: Кэтрин Хайгл, Джейсон О’Мара, Дэниел Сунджата, Джон Легуизамо, Шерри Шеперд, Дебби Рейнолдс, Дебра Монк, Нат Муни, Адам Пол, Фишер Стивенс

Описание: Продавщица нижнего белья в отставке Стэфани Плам нашла новую работу. Отныне она охотится на мужчин, за поимку которых назначена солидная награда. Ее главное оружие - женская интуиция и модные туфли на высоких каблуках. Но даже они бессильны перед главной целью - мужчиной ее мечты. Он красив, остроумен и смертельно опасен, и при этом он её бывший.

Качество: BDRip
Формат: MP4
Видео кодек: MPEG-4
Аудио кодек: AAC
Видео: 640x272, 24 fps, ~700 kbps avg, 0.17 bit/pixel
Аудио: 48 kHz, 2 ch, 128 kbps
<!--/code_head--> <div class="c-body">Video
ID                               : 1
Format                           : MPEG-4 Visual
Format profile                   : [email protected]
Format settings, BVOP            : No
Format settings, QPel            : No
Format settings, GMC             : No warppoints
Format settings, Matrix          : Default (H.263)
Codec ID                         : 20
Duration                         : 1h 31mn
Bit rate mode                    : Variable
Bit rate                         : 700 Kbps
Maximum bit rate                 : 1 675 Kbps
Width                            : 640 pixels
Height                           : 272 pixels
Display aspect ratio             : 2.35:1
Frame rate mode                  : Constant
Frame rate                       : 24.000 fps
Color space                      : YUV
Chroma subsampling               : 4:2:0
Bit depth                        : 8 bits
Scan type                        : Progressive
Compression mode                 : Lossy
Bits/(Pixel*Frame)               : 0.168
Stream size                      : 457 MiB (85%)
Language                         : English
Encoded date                     : UTC 2012-02-29 16:04:35
Tagged date                      : UTC 2012-02-29 16:05:21

Audio
ID                               : 2
Format                           : AAC
Format/Info                      : Advanced Audio Codec
Format profile                   : LC
Codec ID                         : 40
Duration                         : 1h 31mn
Bit rate mode                    : Variable
Bit rate                         : 126 Kbps
Maximum bit rate                 : 219 Kbps
Channel(s)                       : 2 channels
Channel positions                : Front: L R
Sampling rate                    : 48.0 KHz
Compression mode                 : Lossy
Stream size                      : 82.2 MiB (15%)
Language                         : English
Encoded date                     : UTC 2012-02-29 16:05:26
Tagged date                      : UTC 2012-02-29 16:05:38 <!--/code--><!--/code_wrap-->



Трекер:  [ 07-Май-2012 15:33 ]

  

Скачать .torrent

Размер .torrent файла 11 KB


Размер: 541 MB
Хэш (hash) релиза: b7f2d3598fdf9956ce864740cadf11f67cf22b82

Торренты, похожие на [VIDEO] Очень опасная штучка One for the Money скачать торрент

Форум Название Автор Размер S L Добавлен
Видео (Фильмы/Клипы) ·· [VIDEO] Очень опасная штучка / One for the Money (Джули Энн Робинсон / Julie Anne Robinson) [2012, комедия, BDRip][AVI, 480x] Galfimbul 386379776368 MB 0 0 1336393920

15:32

7-Май-12

Видео (Фильмы/Клипы) ·· [VIDEO] Очень опасная штучка / One for the Money (Джули Энн Робинсон / Julie Anne Robinson) [2012, комедия, HDRip] [3GP, 320x] Dub Galfimbul 306204139292 MB 0 0 1336393980

15:33

7-Май-12

Еще никто не оставлял запись к записи скачать торрент [VIDEO] Очень опасная штучка One for the Money . Будь первым!

!Обратная связь