Stone Skimming | Blake et Mortimer - Tome 23 - Le bâton de Plutarque | Descargar

Скачать через торрент [VIDEO] Человек-Паук: Трилогия Spider-Man: Trilogy бесплатно русская версия torrent активатор

Статистика раздачи
Размер:  2.49 GB   |    Зарегистрирован:  6 лет 2 месяца   |    .torrent скачан:  69 раз   |   
Раздают:  1  
   
загрузка...
 
Автор Сообщение

Galfimbul

avatar Galfimbul


Человек-Паук / Spider-Man
Год выпуска: 2002

Страна: США
Жанр: боевик, фэнтези, приключения
Продолжительность: 02:01:12
Перевод: Профессиональный (полное дублирование)
Русские субтитры: нет

Режиссер: Сэм Рэйми / Sam Raimi

В ролях: Tobey Maguire (Тоби Магуайр), Willem Dafoe (Уиллем Дэфо), Kirsten Dunst (Кирстен Данст), James Franco (Джеймс Франко), Rosemary Harris (Розмари Харрис), Cliff Robertson (Клифф Робертсон), J.K. Simmons (Дж. К. Симмонс)

Описание: Однажды во время научной демонстрации опытов облученный радиацией паук незаметно кусает студента средней школы Питера Паркера. После этого у молодого человека развиваются необыкновенные способности, которыми обладают только пауки. Теперь он, подобно паукам, может лазить по стенам и потолкам, из жидкости на своих запястьях может делать подобие паутины, а также у него развивается особое чувство пауков, помогающее чувствовать приближающуюся опасность…

Качество: BDRip
Формат: MP4
Видео кодек: XviD
Аудио кодек: AAC
Видео: XviD, 640x352, 16:9, 768 Kbps, 23.976 fps
Аудио: AAC, 128 Kbps, 48.0 KHz, 2 channels
  
GeneralComplete name : D:\!РИПЫ\Новая папка\Spider-Man - Trilogy\Spider-Man (2002).mp4Format : MPEG-4Format profile : Base Media / Version 2Codec ID : mp42File size : 779 MiBDuration : 2h 1mnOverall bit rate : 898 KbpsEncoded date : UTC 2012-02-26 13:26:38Tagged date : UTC 2012-02-26 13:26:38

VideoID : 201Format : MPEG-4 VisualFormat profile : Advanced [email protected] settings, BVOP : NoFormat settings, QPel : NoFormat settings, GMC : No warppointsFormat settings, Matrix : Default (H.263)Codec ID : 20Duration : 2h 1mnBit rate mode : VariableBit rate : 768 KbpsMaximum bit rate : 6 497 KbpsWidth : 640 pixelsHeight : 352 pixelsDisplay aspect ratio : 16:9Frame rate mode : VariableFrame rate : 23.933 fpsOriginal frame rate : 23.976 fpsMinimum frame rate : 0.203 fpsMaximum frame rate : 23.976 fpsColor space : YUVChroma subsampling : 4:2:0Bit depth : 8 bitsScan type : ProgressiveCompression mode : LossyBits/(Pixel*Frame) : 0.142Stream size : 666 MiB (85%)Title : Imported with GPAC 0.4.6-DEV (build 1)Writing library : XviD 1.2.1 (UTC 2008-12-04)Encoded date : UTC 2012-02-26 13:26:38Tagged date : UTC 2012-02-26 13:27:03

AudioID : 101Format : AACFormat/Info : Advanced Audio CodecFormat profile : LCCodec ID : 40Duration : 2h 1mnBit rate mode : VariableBit rate : 128 KbpsMaximum bit rate : 152 KbpsChannel(s) : 2 channelsChannel positions : Front: L RSampling rate : 48.0 KHzCompression mode : LossyStream size : 111 MiB (14%)Encoded date : UTC 2012-02-26 13:27:01Tagged date : UTC 2012-02-26 13:27:03


Человек-паук 2.1 / Spider-Man 2.1
Год выпуска: 2004

Страна: США
Жанр: боевик, фэнтези, приключения
Продолжительность: 02:15:48
Перевод: Профессиональный (полное дублирование) со вставками многоголосого
Русские субтитры: нет

Режиссер: Сэм Рэйми / Sam Raimi

В ролях: Tobey Maguire (Тоби Магуайр), Kirsten Dunst (Кирстен Данст), James Franco (Джеймс Франко), Alfred Molina (Альфред Молина), Rosemary Harris (Розмари Харрис), Donna Murphy (Донна Мерфи), Daniel Gillies (Дэниэл Гиллис), Dylan Baker (Дилан Бэйкер), Bill Nunn (Билл Нанн), Cliff Robertson (Клифф Робертсон), J.K. Simmons (Дж. К. Симмонс), Willem Dafoe (Уиллем Дэфо)

Описание: С момента событий, произошедших в первом фильме, прошло два года. Тихоня Питер Паркер сталкивается с новыми проблемами: он борется со своим «даром и проклятьем», отчаянно пытаясь балансировать на грани двух своих жизней: метающего паутину супергероя Человека-Паука и обычного студента колледжа… Мучимый своими секретами, Питер понимает, что его отношения со всеми, кто ему дорог, в опасности или заходят в тупик. Его любовь к Мэри Джейн становится еще сильнее, обостряемая порывом Питера раскрыть ей свой секрет и признаться в любви. Дружба с Гарри осложняется горечью молодого Осборна по умершему отцу и всё большим желанием отомстить Человеку-Пауку. Даже любимая тетушка Мэй, у которой были нелегкие времена после смерти дяди Бена, начинает что-то подозревать насчет своего племянника. Жизнь Питера становится еще более сложной, когда он сталкивается с новым суперзлодеем — доктором Отто Октавиусом. Питер должен использовать все свои суперспособности, чтобы одолеть этого жестокого безумца с восемью конечностями…

Качество: BDRip
Формат: MP4
Видео кодек: XviD
Аудио кодек: AAC
Видео: XviD, 640x272, 2.35:1, 768 Kbps, 23.976 fps
Аудио: AAC, 128 Kbps, 48.0 KHz, 2 channels
  
GeneralComplete name : D:\!РИПЫ\Новая папка\Spider-Man - Trilogy\Spider-Man 2.1 (2004).mp4Format : MPEG-4Format profile : Base Media / Version 2Codec ID : mp42File size : 873 MiBDuration : 2h 15mnOverall bit rate : 898 KbpsEncoded date : UTC 2012-02-26 22:17:33Tagged date : UTC 2012-02-26 22:17:33

VideoID : 201Format : MPEG-4 VisualFormat profile : Advanced [email protected] settings, BVOP : NoFormat settings, QPel : NoFormat settings, GMC : No warppointsFormat settings, Matrix : Default (H.263)Codec ID : 20Duration : 2h 15mnBit rate mode : VariableBit rate : 768 KbpsMaximum bit rate : 5 784 KbpsWidth : 640 pixelsHeight : 272 pixelsDisplay aspect ratio : 2.35:1Frame rate mode : VariableFrame rate : 23.962 fpsOriginal frame rate : 23.976 fpsMinimum frame rate : 0.827 fpsMaximum frame rate : 23.976 fpsColor space : YUVChroma subsampling : 4:2:0Bit depth : 8 bitsScan type : ProgressiveCompression mode : LossyBits/(Pixel*Frame) : 0.184Stream size : 746 MiB (85%)Title : Imported with GPAC 0.4.6-DEV (build 1)Writing library : XviD 1.2.1 (UTC 2008-12-04)Encoded date : UTC 2012-02-26 22:17:33Tagged date : UTC 2012-02-26 22:18:02

AudioID : 101Format : AACFormat/Info : Advanced Audio CodecFormat profile : LCCodec ID : 40Duration : 2h 15mnBit rate mode : VariableBit rate : 128 KbpsMaximum bit rate : 175 KbpsChannel(s) : 2 channelsChannel positions : Front: L RSampling rate : 48.0 KHzCompression mode : LossyStream size : 124 MiB (14%)Encoded date : UTC 2012-02-26 22:18:00Tagged date : UTC 2012-02-26 22:18:02


Человек-паук 3: Враг в отражении / Spider-Man 3
Год выпуска: 2007

Страна: США
Жанр: боевик, фэнтези, приключения
Продолжительность: 02:19:11
Перевод: Профессиональный (полное дублирование)
Русские субтитры: нет

Режиссер: Сэм Рэйми / Sam Raimi

В ролях: Tobey Maguire (Тоби Магуайр), Kirsten Dunst (Кирстен Данст), James Franco (Джеймс Франко), Thomas Haden Church (Томас Хейден Черч), Topher Grace (Тофер Грейс), Bryce Dallas Howard (Брайс Даллас Ховард), James Cromwell (Джеймс Кромвелль), Rosemary Harris (Розмари Харрис), J.K. Simmons (Дж. К. Симмонс)

Описание: Прошло пять лет с тех пор, как Питер Паркер стал Человеком-пауком, и три года, как он поклялся не надевать больше свой костюм супергероя. Но все меняется… Под влиянием сверхъестественного вируса в Человеке-пауке пробуждаются темные силы. Желание обладать новыми сверхвозможностями борется с отчаянными попытками победить зло в себе.

Качество: BDRip
Формат: MP4
Видео кодек: XviD
Аудио кодек: AAC
Видео: XviD, 640x272, 2.35:1, 768 Kbps, 23.976 fps
Аудио: AAC, 128 Kbps, 48.0 KHz, 2 channrls
  
GeneralComplete name : D:\!РИПЫ\Новая папка\Spider-Man - Trilogy\Spider-Man 3 (2007).mp4Format : MPEG-4Format profile : Base Media / Version 2Codec ID : mp42File size : 894 MiBDuration : 2h 19mnOverall bit rate : 898 KbpsEncoded date : UTC 2012-02-27 06:34:28Tagged date : UTC 2012-02-27 06:34:28

VideoID : 201Format : MPEG-4 VisualFormat profile : Advanced [email protected] settings, BVOP : NoFormat settings, QPel : NoFormat settings, GMC : No warppointsFormat settings, Matrix : Default (H.263)Codec ID : 20Duration : 2h 19mnBit rate mode : VariableBit rate : 768 KbpsMaximum bit rate : 5 318 KbpsWidth : 640 pixelsHeight : 272 pixelsDisplay aspect ratio : 2.35:1Frame rate mode : VariableFrame rate : 23.912 fpsOriginal frame rate : 23.976 fpsMinimum frame rate : 0.235 fpsMaximum frame rate : 23.976 fpsColor space : YUVChroma subsampling : 4:2:0Bit depth : 8 bitsScan type : ProgressiveCompression mode : LossyBits/(Pixel*Frame) : 0.184Stream size : 764 MiB (85%)Title : Imported with GPAC 0.4.6-DEV (build 1)Writing library : XviD 1.2.1 (UTC 2008-12-04)Encoded date : UTC 2012-02-27 06:34:28Tagged date : UTC 2012-02-27 06:34:58

AudioID : 101Format : AACFormat/Info : Advanced Audio CodecFormat profile : LCCodec ID : 40Duration : 2h 19mnBit rate mode : VariableBit rate : 128 KbpsMaximum bit rate : 158 KbpsChannel(s) : 2 channelsChannel positions : Front: L RSampling rate : 48.0 KHzCompression mode : LossyStream size : 127 MiB (14%)Encoded date : UTC 2012-02-27 06:34:53Tagged date : UTC 2012-02-27 06:34:58


Трекер:  [ 07-Май-2012 15:33 ]

  

Скачать .torrent

Размер .torrent файла 13 KB


Размер: 2.49 GB
Хэш (hash) релиза: 77656c7c4970382cc4865b817345457a373bb51a

Еще никто не оставлял запись к записи скачать торрент [VIDEO] Человек-Паук: Трилогия Spider-Man: Trilogy . Будь первым!

!Обратная связь