The Mountain Between Us (2017) | Impulse HDTV 720p AC3 5.1 | BD Shinryaku Ika Musume Season 2 Subtitle Indonesia

Скачать через торрент [MULT] Лунтик бесплатно русская версия torrent активатор

Статистика раздачи
Размер:  1.83 GB   |    Зарегистрирован:  6 лет 2 месяца   |    .torrent скачан:  228 раз   |   
Раздают:  1  
   
загрузка...
 
Автор Сообщение

Galfimbul

avatar Galfimbul


Лунтик (1 сезон)
Год выпуска: 2011

Страна: Россия
Жанр: Детский, Приключения, Комедия
Продолжительность: ~00:04:30 серия
Перевод: Не требуется
Русские субтитры: нет
Режиссер: Дарина Шмидт
В ролях: Екатерина Гороховская, Юлия Рудина, Олег Куликович, Елена Соловьева, Михаил Черняк, Елена Шульман
Описание: «Приключения Лунтика» — российский обучающий анимационный сериал для детей дошкольного возраста. Это история маленького пушистого существа, Лунтика, родившегося на Луне и упавшего с нее на Землю. Действие происходит в лесу около пруда. Большинство персонажей — это мелкие животные: насекомые, рыбы, лягушки и т. д. Они представляют собой взрослых и детей. Главные персонажи — это дети, прежде всего сам Лунтик, которые познают мир, учатся взаимоотношениям в обществе. Сериал очень добрый, в нём показан детский взгляд на мир. По сути, здесь нет целиком и полностью отрицательных персонажей, даже хулиганы — гусеницы показаны зачастую с разных сторон, многогранными характерами, в которых есть и положительные черты. Сериал представляет собой набор коротких 6-минутных серий, в каждой серии разворачивается отдельная законченная история. Премьера 1 сезона состоялась 1 сентября 2006 года на телеканале «Россия».
Качество: DVDRip
Формат: AVI
Видео кодек: XviD
Аудио кодек: MP3
Видео: XVID 640x496 25.00fps 580Kbps
Аудио: MPEG Audio Layer 3 48000Hz stereo 122Kbps
Релиз Групп:
| |
1. Лунный гость
2. Сон
3. Домик
4. Как стать другом
5. Имя
6. Внук
7. Доброе дело
8. Пиявка
9. Одуванчик
10. Светлячки
11. Шкатулка
12. Мила
13. Что в пруду?
14. Мяч
15. Вниз-вверх
16. Носок
17. Пузырьки
18. Камыш
19. Пирог
20. Роса
21. Одеяло
22. Игрушка
23. Земляничка
24. Ручей
25. Клей
26. Музыка
27. Блинчики
28. Ведерко
29. Цветок
30. Посуда
31. Мешок
32. Страх
33. Зуб
34. Подарок
35. Закат
36. Попрыгушка
37. Простуда
38. Трубочисты
39. Прогулка
40. Зарядка
41. Колодец
42. Невежи
43. Бутон
44. Потоп
45. Клава
46. Бусины
47. Гость
48. Не спать
49. Выше солнца
50. Долг чести
51. Нора
52. Это моё!
53. Беспорядок
54. Скатерть
55. Пух
56. Звездопад
57. Вешалка
58. Праздник
59. Семейный портрет
60. Паутина
61. Две жабы
62. Ритм
63. Сбежавшее тесто
64. Семечко
65. Перестановка
66. Стёклышко
67. Игра
68. Жара
69. Кораблик
70. Табурет
71. Поход
72. Урок
73. Прятки
74. Карта
75. Яблоко
76. Все вместе
77. Лук
78. Сюрприз
79. Выставка
80. День рождения
  
ОбщееПолное имя : G:\Лунтик 1 сезон\1101.Лунный гость.aviФормат : AVIФормат/Информация : Audio Video InterleaveРазмер файла : 23,4 МбайтПродолжительность : 4 м. 34 с.Режим общего битрейта : ПеременныйОбщий поток : 715 Кбит/секПрограмма кодирования : VirtualDubMod 1.5.10.3 | www.virtualdub-fr.org || (build 2550/release)Библиотека кодирования : VirtualDubMod build 2550/release

ВидеоИдентификатор : 0Формат : MPEG-4 VisualПрофиль формата : Advanced [email protected]Параметр BVOP формата : 2Параметр QPel формата : НетПараметр GMC формата : Без точки переходаПараметр матрицы формата : Default (H.263)Режим смешивания : Сжатый битовый потокИдентификатор кодека : XVIDИдентификатор кодека/Подсказка : XviDПродолжительность : 4 м. 34 с.Битрейт : 580 Кбит/секШирина : 640 пикселейВысота : 496 пикселейСоотношение сторон : 1,290Частота кадров : 25,000 кадров/секЦветовое пространство : YUVСубдискретизация насыщенности : 4:2:0Битовая глубина : 8 битТип развёртки : ПрогрессивнаяМетод сжатия : С потерямиБит/(Пиксели*Кадры) : 0.073Размер потока : 19,0 Мбайт (81%)Библиотека кодирования : XviD 1.2.1 (UTC 2008-12-04)

АудиоИдентификатор : 1Формат : MPEG AudioВерсия формата : Version 1Профиль формата : Layer 3Идентификатор кодека : 55Идентификатор кодека/Подсказка : MP3Продолжительность : 4 м. 34 с.Вид битрейта : ПеременныйБитрейт : 128 Кбит/секКаналы : 2 каналаЧастота : 48,0 КГцМетод сжатия : С потерямиРазмер потока : 4,00 Мбайт (17%)Выравнивание : Соединение по промежуткамПродолжительность промежутка : 24 мс. (0,60 видеокадр)Время предзагрузки промежутка : 421 мс.Библиотека кодирования : LAME3.98rНастройки программы : -m s -V 4 -q 2 -lowpass 17 --abr 128


Трекер:  [ 07-Май-2012 23:22 ]

  

Скачать .torrent

Размер .torrent файла 23 KB


Размер: 1.83 GB
Хэш (hash) релиза: 4a94c37e1fa8fb1f68dc5e33b635cb58baf93489

Торренты, похожие на [MULT] Лунтик скачать торрент

Форум Название Автор Размер S L Добавлен
Видео (Фильмы/Клипы) ·· [MULT] Лунтик (1 сезон) (Дарина Шмидт) [2011, Детский, Приключения, Комедия, DVDRip] [3GP, 176x] Galfimbul 853129022814 MB 0 0 1336422060

23:21

7-Май-12

Еще никто не оставлял запись к записи скачать торрент [MULT] Лунтик . Будь первым!

!Обратная связь