Philip K. Dick's Electric Dreams Season 1 Eps10 | Watch movie | Die Borgias – Sex. Macht. Mord. Amen.

Скачать через торрент [VIDEO] Месть Revenge бесплатно русская версия torrent активатор

Статистика раздачи
Размер:  419 MB   |    Зарегистрирован:  6 лет 3 месяца   |    .torrent скачан:  28 раз   |   
Раздают:  1  
   
загрузка...
 
Автор Сообщение

Galfimbul

avatar Galfimbul


Месть / Revenge

Год выпуска: 1989

Страна: США, Мексика
Жанр: триллер, драма, мелодрама, криминал
Продолжительность: 124 мин. / 02:04
Перевод: Профессиональный (многоголосый, закадровый)
Русские субтитры: нет
Режиссер: Тони Скотт/Tony Scott
В ролях: Кевин Костнер
Энтони Куинн
Мэдлин Стоу
Томас Милиан
Хоакин Мартинес
Джеймс Гэммон
Джесси Корти
Сэлли Кёркленд
Луис Де Икаса
Жерардо Зепеда

Роли дублировали:
Вадим Андреев
Рогволд Суховерко
Анна Каменкова
Даниил Нетребин
Денис Баландин

Описание: Джей Кокрэн, летчик ВВС США, уволившись из армии, принимает приглашение старого приятеля Тибурона Мендеса, мексиканского латифундиста, политика и, вероятно, крупного мафиози.
Приехав в гости в Мексику, где, впрочем, Кокрэн приобрел небольшую хижину в уединенном горном уголке, и встретив молодую и красивую Мирию, жену Мендеса, он, забыв об опасности, отдается вспыхнувшему страстному чувству.

Доп. информация:

Рейтинг фильма
7.392 1 572
IMDb: 5.70 (6 778)

Качество: HDRip
Формат: AVI
Видео кодек: XviD
Аудио кодек: MP3
Видео: XviD, 480х272, (16/9), 444 Kbps, 23.976 fps
Аудио: MP3, 128 Kbps, 44.1 KHz, 2 channels
  
Месть General Complete name : D:\Месть\Исходник\Mest.avi Format : AVI Format/Info : Audio Video Interleave File size : 419 MiB Duration : 1h 40mn Overall bit rate : 584 Kbps Writing application : MEncoder SVN-r22963 Writing library : MPlayer Video Format : MPEG-4 Visual Format profile : [email protected] Format settings, BVOP : No Format settings, QPel : No Format settings, GMC : No warppoints Format settings, Matrix : Default Codec ID : XVID Codec ID/Hint : XviD Duration : 1h 40mn Bit rate : 444 Kbps Width : 480 pixels Height : 272 pixels Display aspect ratio : 16/9 Frame rate : 23.976 fps Resolution : 8 bits Colorimetry : 4:2:0 Scan type : Progressive Bits/(Pixel*Frame) : 0.142 Stream size : 319 MiB (76%) Writing library : Lavc51.40.2 Audio Format : MPEG Audio Format version : Version 1 Format profile : Layer 3 Codec ID : 55 Codec ID/Hint : MP3 Duration : 1h 40mn Bit rate mode : Constant Bit rate : 128 Kbps Channel(s) : 2 channels Sampling rate : 44.1 KHz Resolution : 16 bits Stream size : 91.8 MiB (22%) Alignment : Aligned on interleaves Interleave, duration : 26 ms (0.63 video frame) Interleave, preload duration : 522 ms Writing library : LAME3.97


Трекер:  [ 07-Май-2012 15:23 ]

  

Скачать .torrent

Размер .torrent файла 17 KB


Размер: 419 MB
Хэш (hash) релиза: 8e15845f8181d4edf51541c267644a7e0ee86f4d

Еще никто не оставлял запись к записи скачать торрент [VIDEO] Месть Revenge . Будь первым!

!Обратная связь