Idolish7 | reloj The Little Stranger (2018) en línea en espanol | Latest Reviews

Скачать через торрент [VIDEO] Хранитель времени Hugo бесплатно русская версия torrent активатор

Статистика раздачи
Размер:  1.07 GB   |    Зарегистрирован:  6 лет 3 месяца   |    .torrent скачан:  38 раз   |   
Раздают:  1  
   
загрузка...
 
Автор Сообщение

Galfimbul

avatar Galfimbul


Хранитель времени / Hugo
Год выпуска: 2011
[b]Продолжительность:
02:06:21
Производство: США
Жанр: драма, детектив, приключения, семейный
Перевод: Профессиональный (дублированный) | Лицензия[/b]
Субтитры: нет
Дата мировой премьеры: 10 октября 2011
Режиссер: Мартин Скорсезе / Martin Scorsese
Актеры: Аса Баттерфилд, Бен Кингсли, Саша Барон Коэн, Хлоя Грейс Морец, Рэй Уинстон, Эмили Мортимер, Кристофер Ли, Хелен МакКрори, Майкл Стулбар
Описание фильма:
Приключения находчивого мальчика, который должен раскрыть секрет, оставленный его отцом, чтобы найти то место, которое сможет назвать своим домом.
Рейтинг:

Качество: BDRip | [b]Формат: MP4 | Видео кодек: XviD | Аудио кодек: AAC
Видео: 640x360 (AR 16:9), 1080 Kbps, 23.976 fps | Аудио: 128 Kbps, 48.0 KHz, 2ch, Stereo[/b]
General
Complete name : K:\Torrents\Мои раздачи\[VIDEO4PDA] Hugo\Hugo.mp4
Format : MPEG-4
Format profile : Base Media / Version 2
Codec ID : mp42
File size : 1.07 GiB
Duration : 2h 6mn
Overall bit rate mode : Variable
Overall bit rate : 1 210 Kbps
Encoded date : UTC 2012-02-25 03:11:45
Tagged date : UTC 2012-02-25 03:11:45

Video
ID : 201
Format : MPEG-4 Visual
Format profile : Advanced [email protected]
Format settings, BVOP : No
Format settings, QPel : No
Format settings, GMC : No warppoints
Format settings, Matrix : Default (H.263)
Codec ID : 20
Duration : 2h 6mn
Bit rate mode : Variable
Bit rate : 1 079 Kbps
Maximum bit rate : 10.9 Mbps
Width : 640 pixels
Height : 360 pixels
Display aspect ratio : 16:9
Frame rate mode : Constant
Frame rate : 23.976 fps
Color space : YUV
Chroma subsampling : 4:2:0
Bit depth : 8 bits
Scan type : Progressive
Compression mode : Lossy
Bits/(Pixel*Frame) : 0.195
Stream size : 975 MiB (89%)
Writing library : XviD 61
Encoded date : UTC 2012-02-25 03:11:45
Tagged date : UTC 2012-02-25 03:13:02

Audio
ID : 101
Format : AAC
Format/Info : Advanced Audio Codec
Format profile : LC
Codec ID : 40
Duration : 2h 6mn
Bit rate mode : Variable
Bit rate : 128 Kbps
Maximum bit rate : 151 Kbps
Channel(s) : 2 channels
Channel positions : Front: L R
Sampling rate : 48.0 KHz
Compression mode : Lossy
Stream size : 116 MiB (11%)
Encoded date : UTC 2012-02-25 03:12:59
Tagged date : UTC 2012-02-25 03:13:02
Релиз подготовлен:



Трекер:  [ 07-Май-2012 15:23 ]

  

Скачать .torrent

Размер .torrent файла 11 KB


Размер: 1.07 GB
Хэш (hash) релиза: 097bed0957e4998617f830ad3cb2dc76373ff59a

Торренты, похожие на [VIDEO] Хранитель времени Hugo скачать торрент

Форум Название Автор Размер S L Добавлен
Видео (Фильмы/Клипы) ·· [VIDEO] Хранитель времени / Hugo (Мартин Скорсезе / Martin Scorsese) [2011, драма, детектив, приключения, семейный, HDRip] [3GP, 320x] Dub Galfimbul 424033803404 MB 0 0 1336393380

15:23

7-Май-12

Еще никто не оставлял запись к записи скачать торрент [VIDEO] Хранитель времени Hugo . Будь первым!

!Обратная связь