Watch Series | Female Singap08re May | Soundtrack

Скачать через торрент [VIDEO] В диких условиях Into the Wild бесплатно русская версия torrent активатор

Статистика раздачи
Размер:  951 MB   |    Зарегистрирован:  6 лет 2 месяца   |    .torrent скачан:  43 раза   |   
Раздают:  1  
   
загрузка...
 
Автор Сообщение

Galfimbul

avatar Galfimbul


В диких условиях / Into the Wild

Год выпуска: 2007

Страна: США
Жанр: драма, приключения, биография
Продолжительность: 02:28:06
Перевод: Профессиональный (многоголосый, закадровый)
Русские субтитры: нет

Режиссер: Шон Пенн / Sean Penn

В ролях: Эмиль Хирш (Chris McCandless), Марша Гэй Харден (Billie McCandless), Уильям Хёрт (Walt McCandless), Джена Мэлоун (Carine McCandless / Additional рассказчик), Брайан Х. Дьеркер (Rainey), Кэтрин Кинер (Jan Burres), Винс Вон (Wayne Westerberg), Кристен Стюарт (Tracy Tatro), Хэл Холбрук (Ron Franz), Jim Galien (играет самого себя), Джеймс О`Нейлл (Graduation Reader), Малинда МакКолам (Waitress)

Описание: После окончания Университета Эмори один из его ведущих студентов и атлетов Кристофер МакКэндлесс оставляет все свое имущество, отдает накопленные за время учебы 24 тыс. долларов в благотворительный фонд, и отправляется автостопом на Аляску, чтобы окунуться в дикую природу. По дороге Кристофер знакомится с разными людьми, так или иначе влияющими на его жизнь.
Качество: BDRip
Формат: MP4
Видео кодек: XviD
Аудио кодек: AAC
Видео: XviD, 640x272, 2.35:1, 768 Kbps, 23.976 fps
Аудио: AAC, 128 Kbps, 48.0 KHz, 2 channels
  
GeneralComplete name : D:\!РИПЫ\Новая папка\Into the Wild (2007).mp4Format : MPEG-4Format profile : Base Media / Version 2Codec ID : mp42File size : 951 MiBDuration : 2h 28mnOverall bit rate : 898 KbpsEncoded date : UTC 2012-02-21 21:18:50Tagged date : UTC 2012-02-21 21:18:50

VideoID : 201Format : MPEG-4 VisualFormat profile : Advanced [email protected] settings, BVOP : NoFormat settings, QPel : NoFormat settings, GMC : No warppointsFormat settings, Matrix : Default (H.263)Codec ID : 20Duration : 2h 28mnBit rate mode : VariableBit rate : 768 KbpsMaximum bit rate : 5 236 KbpsWidth : 640 pixelsHeight : 272 pixelsDisplay aspect ratio : 2.35:1Frame rate mode : VariableFrame rate : 23.887 fpsOriginal frame rate : 23.976 fpsMinimum frame rate : 0.187 fpsMaximum frame rate : 23.976 fpsColor space : YUVChroma subsampling : 4:2:0Bit depth : 8 bitsScan type : ProgressiveCompression mode : LossyBits/(Pixel*Frame) : 0.185Stream size : 813 MiB (85%)Title : Imported with GPAC 0.4.6-DEV (build 1)Writing library : XviD 1.2.1 (UTC 2008-12-04)Encoded date : UTC 2012-02-21 21:18:50Tagged date : UTC 2012-02-21 21:20:07

AudioID : 101Format : AACFormat/Info : Advanced Audio CodecFormat profile : LCCodec ID : 40Duration : 2h 27mnBit rate mode : VariableBit rate : 128 KbpsMaximum bit rate : 186 KbpsChannel(s) : 2 channelsChannel positions : Front: L RSampling rate : 48.0 KHzCompression mode : LossyStream size : 135 MiB (14%)Encoded date : UTC 2012-02-21 21:19:52Tagged date : UTC 2012-02-21 21:20:07Material_Duration : 8873408Material_StreamSize : 141849756



Трекер:  [ 07-Май-2012 15:23 ]

  

Скачать .torrent

Размер .torrent файла 19 KB


Размер: 951 MB
Хэш (hash) релиза: 95c69fc43412997351e4c2209947665020002bb8

Еще никто не оставлял запись к записи скачать торрент [VIDEO] В диких условиях Into the Wild . Будь первым!

!Обратная связь