..."/> ..."> Crash Bandicoot N.Sane Trilogy | Exploitation" Films of the 70s, 80s, and Beyond | 88. Anne Marie Heavy mp3

Скачать через торрент [VIDEO] Зелёная миля The Green Mile бесплатно русская версия torrent активатор

Статистика раздачи
Размер:  1.18 GB   |    Зарегистрирован:  6 лет 2 месяца   |    .torrent скачан:  47 раз   |   
Раздают:  1  
   
загрузка...
 
Автор Сообщение

Galfimbul

avatar Galfimbul


Зелёная миля / The Green Mile

Год выпуска: 1999

Страна: США
Жанр: Драма
Продолжительность: 03:08:37
Перевод: Профессиональный (полное дублирование)
Русские субтитры: нет

Режиссер: Фрэнк Дарабонт / Frank Darabont

В ролях: Том Хэнкс, Дэвид Морс, Бонни Хант, Майкл Кларк Дункан, Джеймс Кромуэлл, Майкл Джетер, Грэхэм Грин, Даг Хатчинсон, Сэм Роквэлл, Бэрри Пеппер

Описание: Фильм снят по мотивам произведения Стивена Кинга "Зеленая Миля".
Обвиненный в страшном преступлении, Джон Коффи оказывается в блоке смертников тюрьмы «Холодная гора». Вновь прибывший обладал поразительным ростом и был пугающе спокоен, что, впрочем, никак не влияло на отношение к нему начальника блока Пола Эджкомба, привыкшего исполнять приговор.

Гигант удивил всех позже, когда выяснилось, что он обладает невероятной магической силой…

Качество: BDRip
Формат: MP4
Видео кодек: XviD
Аудио кодек: AAC
Видео: XviD, 640x360, 768 Kbps, 23.976 fps
Аудио: AAC, 128 Kbps, 48.0 KHz, 2 channels
  
GeneralComplete name : D:\!РИПЫ\Новая папка\Green Mile (1999).mp4Format : MPEG-4Format profile : Base Media / Version 2Codec ID : mp42File size : 1.18 GiBDuration : 3h 8mnOverall bit rate : 898 KbpsEncoded date : UTC 2012-02-22 10:31:12Tagged date : UTC 2012-02-22 10:31:12

VideoID : 201Format : MPEG-4 VisualFormat profile : Advanced [email protected] settings, BVOP : NoFormat settings, QPel : NoFormat settings, GMC : No warppointsFormat settings, Matrix : Default (H.263)Codec ID : 20Duration : 3h 8mnBit rate mode : VariableBit rate : 768 KbpsMaximum bit rate : 8 814 KbpsWidth : 640 pixelsHeight : 360 pixelsDisplay aspect ratio : 16:9Frame rate mode : VariableFrame rate : 23.903 fpsOriginal frame rate : 23.976 fpsMinimum frame rate : 0.421 fpsMaximum frame rate : 23.976 fpsColor space : YUVChroma subsampling : 4:2:0Bit depth : 8 bitsScan type : ProgressiveCompression mode : LossyBits/(Pixel*Frame) : 0.139Stream size : 1.01 GiB (85%)Title : Imported with GPAC 0.4.6-DEV (build 1)Writing library : XviD 1.2.1 (UTC 2008-12-04)Encoded date : UTC 2012-02-22 10:31:12Tagged date : UTC 2012-02-22 10:32:11Material_Duration : 11317557Material_StreamSize : 1086099183Material_FrameCount : 270529

AudioID : 101Format : AACFormat/Info : Advanced Audio CodecFormat profile : LCCodec ID : 40Duration : 3h 8mnBit rate mode : VariableBit rate : 128 KbpsMaximum bit rate : 152 KbpsChannel(s) : 2 channelsChannel positions : Front: L RSampling rate : 48.0 KHzCompression mode : LossyStream size : 172 MiB (14%)Encoded date : UTC 2012-02-22 10:32:00Tagged date : UTC 2012-02-22 10:32:11



Трекер:  [ 07-Май-2012 15:25 ]

  

Скачать .torrent

Размер .torrent файла 12 KB


Размер: 1.18 GB
Хэш (hash) релиза: 112e4e743a07d1e61c913df7fe8541120d519db0

Еще никто не оставлял запись к записи скачать торрент [VIDEO] Зелёная миля The Green Mile . Будь первым!

!Обратная связь