Contact Us | Katee Life -Pussy Play | Télécharger Part 1

Скачать через торрент [VIDEO] Жизнь прекрасна У меня рак бесплатно русская версия torrent активатор

Статистика раздачи
Размер:  643 MB   |    Зарегистрирован:  6 лет 2 месяца   |    .torrent скачан:  50 раз   |   
Раздают:  1  
   
загрузка...
 
Автор Сообщение

Galfimbul

avatar Galfimbul


Жизнь прекрасна / 50/50

Год выпуска: 2011

Страна: США

Жанр: драма, комедия

Продолжительность: 01:40:02
Перевод: Профессиональный (Двухголосый от Ozz.tv)
Русские субтитры: нет

Режиссер: Джонатан Ливайн

В ролях: Джозеф Гордон-Левитт, Сет Роген, Анна Кендрик, Брайс Даллас Ховард, Анджелика Хьюстон, Серж Уд, Эндрю Эйрли, Мэтт Фрюэр, Филип Бейкер Холл, Донна Ямамото и др.

Описание: Молодой преуспевающий журналист Адам готовится выпустить сенсационную статью о вулканах в Европе. Он не курит, не пьет, ведёт здоровый образ жизни, не водит машину потому что это опасно. Кроме того, у нашего героя есть всё для счастья: прекрасный дом, любимая девушка, хорошая работа. Но вот беда: наполеоновским планам помешали неожиданные боли в спине. После визита к врачу Адам узнает страшную правду: у него рак спинного мозга с редкой мутацией хромосом, не поддающейся лечению. Что делать? Как жить дальше? Как не сойти с ума? Можно ли выйти победителем в битве с медленной смертью?

Качество: BDRip Исходник: BDRip 720p
Формат: MP4
Видео кодек: XviD
Аудио кодек: AAC
Видео: XviD, 640x360, 768 Kbps, 23.976 fps
Аудио: AAC, 128 Kbps, 48.0 KHz, 2 channels
  
GeneralComplete name : D:\Видео телефон\Zhizn_prekrasna_BDRip_by_HataBich.mp4Format : MPEG-4Format profile : Base Media / Version 2Codec ID : mp42File size : 643 MiBDuration : 1h 40mnOverall bit rate mode : VariableOverall bit rate : 898 KbpsEncoded date : UTC 2012-02-21 05:41:42Tagged date : UTC 2012-02-21 05:41:42

VideoID : 201Format : MPEG-4 VisualFormat profile : Advanced [email protected] settings, BVOP : NoFormat settings, QPel : NoFormat settings, GMC : No warppointsFormat settings, Matrix : Default (H.263)Codec ID : 20Duration : 1h 40mnBit rate mode : VariableBit rate : 768 KbpsMaximum bit rate : 3 163 KbpsWidth : 640 pixelsHeight : 360 pixelsDisplay aspect ratio : 16:9Frame rate mode : VariableFrame rate : 23.912 fpsOriginal frame rate : 23.976 fpsMinimum frame rate : 0.171 fpsMaximum frame rate : 23.976 fpsColor space : YUVChroma subsampling : 4:2:0Bit depth : 8 bitsScan type : ProgressiveCompression mode : LossyBits/(Pixel*Frame) : 0.139Stream size : 549 MiB (85%)Writing library : XviD 1.2.1 (UTC 2008-12-04)Encoded date : UTC 2012-02-21 05:41:42Tagged date : UTC 2012-02-21 05:42:19

AudioID : 101Format : AACFormat/Info : Advanced Audio CodecFormat profile : LCCodec ID : 40Duration : 1h 40mnBit rate mode : VariableBit rate : 128 KbpsMaximum bit rate : 150 KbpsChannel(s) : 2 channelsChannel positions : Front: L RSampling rate : 48.0 KHzCompression mode : LossyStream size : 91.5 MiB (14%)Encoded date : UTC 2012-02-21 05:42:14Tagged date : UTC 2012-02-21 05:42:19


Трекер:  [ 07-Май-2012 15:26 ]

  

Скачать .torrent

Размер .torrent файла 13 KB


Размер: 643 MB
Хэш (hash) релиза: 25ae178bcfdf0240163965c6bbc388dc61dff1d2

Еще никто не оставлял запись к записи скачать торрент [VIDEO] Жизнь прекрасна У меня рак . Будь первым!

!Обратная связь