The Stolen 2017 | Mme Mills une voisine si parfaite | Family Guy S14E19 720p HDTV x264-AVS[rartv]

Скачать через торрент [VIDEO] Национальная безопасность National Security бесплатно русская версия torrent активатор

Статистика раздачи
Размер:  568 MB   |    Зарегистрирован:  6 лет 2 месяца   |    .torrent скачан:  48 раз   |   
Раздают:  1  
   
загрузка...
 
Автор Сообщение

Galfimbul

avatar Galfimbul


Национальная безопасность / National Security

Год выпуска: 2003

Страна: США
Жанр: боевик, триллер, комедия, криминал
Продолжительность: 01:28:20
Перевод: Профессиональный (полное дублирование)
Русские субтитры: нет

Режиссер: Деннис Дуган / Dennis Dugan

В ролях: Мартин Лоуренс, Стив Зан, Колм Фиор, Билл Дьюк, Эрик Робертс, Тимоти Басфилд, Робин Ли, Мэтт МакКой, Бретт Каллен, Клио Кинг

Описание: Стать полицейским — мечта многих мальчишек. Стать офицером — мечта многих курсантов полицейской академии. А быть офицером службы «Национальной безопасности» означает только одно — быть неудачником. Эрл Монтгомери очутился там за систематическое нарушение дисциплины — его сочли недостойным носить звание полицейского. Незадолго до этого он подставил Хэнка Рафферти.
По иронии судьбы они становятся напарниками, и отношения между ними скорее напоминают боевые действия. Своими выездами на дежурство они умудряются «достать» весь город. И теперь в городе найдется немало желающих «замочить» эту парочку. Если только бравые блюстители порядка первыми не перебьют друг друга!
Качество: BDRip
Формат: MP4
Видео кодек: XviD
Аудио кодек: AAC
Видео: XviD, 640x352, 16:9, 768 Kbps, 23.976 fps
Аудио: AAC, 128 Kbps, 48.0 KHz, 2 channels
  
GeneralComplete name : D:\!РИПЫ\Новая папка\National Security (2003).mp4Format : MPEG-4Format profile : Base Media / Version 2Codec ID : mp42File size : 568 MiBDuration : 1h 28mnOverall bit rate : 898 KbpsEncoded date : UTC 2012-02-18 20:53:07Tagged date : UTC 2012-02-18 20:53:07

VideoID : 201Format : MPEG-4 VisualFormat profile : Advanced [email protected] settings, BVOP : NoFormat settings, QPel : NoFormat settings, GMC : No warppointsFormat settings, Matrix : Default (H.263)Codec ID : 20Duration : 1h 28mnBit rate mode : VariableBit rate : 768 KbpsMaximum bit rate : 4 160 KbpsWidth : 640 pixelsHeight : 352 pixelsDisplay aspect ratio : 16:9Frame rate mode : VariableFrame rate : 23.895 fpsOriginal frame rate : 23.976 fpsMinimum frame rate : 0.461 fpsMaximum frame rate : 23.976 fpsColor space : YUVChroma subsampling : 4:2:0Bit depth : 8 bitsScan type : ProgressiveCompression mode : LossyBits/(Pixel*Frame) : 0.143Stream size : 485 MiB (85%)Title : Imported with GPAC 0.4.6-DEV (build 1)Writing library : XviD 1.2.1 (UTC 2008-12-04)Encoded date : UTC 2012-02-18 20:53:07Tagged date : UTC 2012-02-18 20:53:45

AudioID : 101Format : AACFormat/Info : Advanced Audio CodecFormat profile : LCCodec ID : 40Duration : 1h 28mnBit rate mode : VariableBit rate : 128 KbpsMaximum bit rate : 163 KbpsChannel(s) : 2 channelsChannel positions : Front: L RSampling rate : 48.0 KHzCompression mode : LossyStream size : 80.8 MiB (14%)Encoded date : UTC 2012-02-18 20:53:44Tagged date : UTC 2012-02-18 20:53:45



Трекер:  [ 07-Май-2012 15:26 ]

  

Скачать .torrent

Размер .torrent файла 11 KB


Размер: 568 MB
Хэш (hash) релиза: b21d6d36b90406ff9881c34e401b6e398910c060

Еще никто не оставлял запись к записи скачать торрент [VIDEO] Национальная безопасность National Security . Будь первым!

!Обратная связь