Once Upon a Time | Eric Larsen | Young Dracula

Скачать через торрент [VIDEO] Сияние The Shining бесплатно русская версия torrent активатор

Статистика раздачи
Размер:  924 MB   |    Зарегистрирован:  6 лет 2 месяца   |    .torrent скачан:  68 раз   |   
Раздают:  1  
   
загрузка...
 
Автор Сообщение

Galfimbul

avatar Galfimbul


Сияние / The Shining

Год выпуска: 1980

Страна: США
Жанр: Ужасы, Триллер
Продолжительность: 02:23:46
Перевод: Профессиональный (многоголосый, закадровый)
Русские субтитры: нет

Режиссер: Стэнли Кубрик / Stanley Cubrick

В ролях: Джек Николсон, Шелли Дюволл, Дэнни Ллойд, Скэтман Крозерс, Энн Джексон, Тони Бертон, Барри Нелсон, Филип Стоун, Джо Теркел

Описание: Джек Торренс, приехал в элегантный уединенный отель, чтобы поработать смотрителем во время мертвого сезона вместе со своей женой и сыном. Торренс здесь раньше никогда не бывал. Или это не совсем так? Ответ лежит во мраке, сотканном из преступного кошмара.
Качество: HDDVDRip
Формат: MP4
Видео кодек: XviD
Аудио кодек: AAC
Видео: XviD, 640x360, 16:9, 23.976 fps
Аудио: AAC, 128 Kbps, 48.0 KHz, 2 channels
  
GeneralComplete name : D:\!РИПЫ\Новая папка\The Shining (1980).mp4Format : MPEG-4Format profile : Base Media / Version 2Codec ID : mp42File size : 924 MiBDuration : 2h 23mnOverall bit rate : 898 KbpsEncoded date : UTC 2012-02-20 21:52:21Tagged date : UTC 2012-02-20 21:52:21

VideoID : 201Format : MPEG-4 VisualFormat profile : Advanced [email protected] settings, BVOP : NoFormat settings, QPel : NoFormat settings, GMC : No warppointsFormat settings, Matrix : Default (H.263)Codec ID : 20Duration : 2h 23mnBit rate mode : VariableBit rate : 768 KbpsMaximum bit rate : 4 592 KbpsWidth : 640 pixelsHeight : 360 pixelsDisplay aspect ratio : 16:9Frame rate mode : VariableFrame rate : 23.962 fpsOriginal frame rate : 23.976 fpsMinimum frame rate : 0.324 fpsMaximum frame rate : 23.976 fpsColor space : YUVChroma subsampling : 4:2:0Bit depth : 8 bitsScan type : ProgressiveCompression mode : LossyBits/(Pixel*Frame) : 0.139Stream size : 789 MiB (85%)Title : Imported with GPAC 0.4.6-DEV (build 1)Writing library : XviD 1.2.1 (UTC 2008-12-04)Encoded date : UTC 2012-02-20 21:52:21Tagged date : UTC 2012-02-20 21:53:10

AudioID : 101Format : AACFormat/Info : Advanced Audio CodecFormat profile : LCCodec ID : 40Duration : 2h 23mnBit rate mode : VariableBit rate : 128 KbpsMaximum bit rate : 153 KbpsChannel(s) : 2 channelsChannel positions : Front: L RSampling rate : 48.0 KHzCompression mode : LossyStream size : 132 MiB (14%)Encoded date : UTC 2012-02-20 21:53:04Tagged date : UTC 2012-02-20 21:53:10



Трекер:  [ 07-Май-2012 15:26 ]

  

Скачать .torrent

Размер .torrent файла 18 KB


Размер: 924 MB
Хэш (hash) релиза: 64375a92f9f8ec0074452e9ccc3ad3ecd05e47c8

Еще никто не оставлял запись к записи скачать торрент [VIDEO] Сияние The Shining . Будь первым!

!Обратная связь