Penn & Teller: Fool Us | The Human Condition | Letterkenny

Скачать через торрент [VIDEO] Каратель The Punisher бесплатно русская версия torrent активатор

Статистика раздачи
Размер:  793 MB   |    Зарегистрирован:  6 лет 2 месяца   |    .torrent скачан:  57 раз   |   
Раздают:  1  
   
загрузка...
 
Автор Сообщение

Galfimbul

avatar Galfimbul


Каратель / The Punisher

Год выпуска: 2004

Страна: США
Жанр: Боевик, триллер
Продолжительность: 02:03:26
Перевод: Профессиональный (полное дублирование)
Русские субтитры: нет

Режиссер: Джонатан Хенсли / Jonathan Hensleigh

В ролях: Томас Джейн, Джон Траволта, Уилл Паттон, Эдди Джемисон, Ребекка Ромин, Бен Фостер, John Pinette, Лаура Хэрринг, Джеймс Карпинелло, Марко Ст. Джон, Саманта Мэтис, Маркус Джонс, Бонни Джонсон, Рой Шайдер, Кевин Нэш, Эдуардо Янез, Омар Алива, А. Расселл Эндрюс, Марк Колли

Описание: Спецагент ФБР Фрэнк Касл мечтает расстаться с беспокойной должностью, уйти из бюро и начать нормальную семейную жизнь. Но перед уходом он неосторожно затрагивает интересы бизнесмена Ховарда Сэйнта, на деле - подпольного короля преступного мира, который мстит Каслу с особой жестокостью. Ярость Сэйнта обрушивается на семью Фрэнка, а сам он случайно остается в живых. Теперь, используя опыт более чем 20-летней работы, Касл маскируется под незаметного обывателя и разрабатывает идеальный план, как добраться до своего врага и наказать его...

Качество: BDRip
Формат: MP4
Видео кодек: XviD
Аудио кодек: AAC
Видео: XviD, 640x272, 2.35:1, 768 Kbps, 23.976 fps
Аудио: AAC, 128 Kbps, 48.0 KHz, 2 channels
  
GeneralComplete name : D:\!РИПЫ\Новая папка\The Punisher (2004).mp4Format : MPEG-4Format profile : Base Media / Version 2Codec ID : mp42File size : 793 MiBDuration : 2h 3mnOverall bit rate : 898 KbpsEncoded date : UTC 2012-02-20 01:37:43Tagged date : UTC 2012-02-20 01:37:43

VideoID : 201Format : MPEG-4 VisualFormat profile : Advanced [email protected] settings, BVOP : NoFormat settings, QPel : NoFormat settings, GMC : No warppointsFormat settings, Matrix : Default (H.263)Codec ID : 20Duration : 2h 3mnBit rate mode : VariableBit rate : 768 KbpsMaximum bit rate : 5 228 KbpsWidth : 640 pixelsHeight : 272 pixelsDisplay aspect ratio : 2.35:1Frame rate mode : VariableFrame rate : 23.976 fpsMinimum frame rate : 1.499 fpsMaximum frame rate : 23.976 fpsColor space : YUVChroma subsampling : 4:2:0Bit depth : 8 bitsScan type : ProgressiveCompression mode : LossyBits/(Pixel*Frame) : 0.184Stream size : 678 MiB (85%)Title : Imported with GPAC 0.4.6-DEV (build 1)Writing library : XviD 1.2.1 (UTC 2008-12-04)Encoded date : UTC 2012-02-20 01:37:43Tagged date : UTC 2012-02-20 01:38:09

AudioID : 101Format : AACFormat/Info : Advanced Audio CodecFormat profile : LCCodec ID : 40Duration : 2h 3mnBit rate mode : VariableBit rate : 128 KbpsMaximum bit rate : 168 KbpsChannel(s) : 2 channelsChannel positions : Front: L RSampling rate : 48.0 KHzCompression mode : LossyStream size : 113 MiB (14%)Encoded date : UTC 2012-02-20 01:38:08Tagged date : UTC 2012-02-20 01:38:09Material_Duration : 7405675Material_StreamSize : 118346719



Трекер:  [ 07-Май-2012 15:26 ]

  

Скачать .torrent

Размер .torrent файла 16 KB


Размер: 793 MB
Хэш (hash) релиза: e15d9bcdf9bef279efb696e542be6a50b89d8bb7

Еще никто не оставлял запись к записи скачать торрент [VIDEO] Каратель The Punisher . Будь первым!

!Обратная связь